Начать новую тему Ответить на тему
Статистика раздачи
Размер: 521.37 МБ | Добавлен: 26 июн 2020, 17:53 | Скачали: 0
Сидеров: 0  [0 байт/сек]    Личеров: 0  [0 байт/сек]
Пред. тема | След. тема 

Автор
Сообщение

СообщениеДобавлено: 26 июн 2020, 17:53 

Ответить с цитатой 

Various - We Came to Dance Vol. IV.1994
Жанр: EBM, Goth Rock
Носитель: CD
Страна-производитель диска (релиза): Germany
Год издания: 1994
Издатель (лейбл): Sub Terranean
Номер по каталогу: SPV 084-38902
Страна исполнителя (группы): Germany
Аудиокодек: FLAC (*.flac)
Тип рипа: image+.cue
Продолжительность: 1:11:46
Источник: собственный рип
Наличие сканов в содержимом раздачи: да
Треклист:
1 . Project Pitchfork - Souls 4:30
2 . Die Krupps - Fatherland 4:08
3 . Delay - Physical Aggression 3:25
4 . Die Form - Bite Of God 4:04
5 . Leatherstrip - Don't Tame Your Soul 5:36
6 . Das Ich - Kain Und Abel 6:09
7 . Steril - Virus Perform 3:25
8 . Apoptygma Berzerk - Bitch 4:25
9 . Dronning Maud Land - Hollow Eyes 4:25
10 . Tilt! - Merciless 4:45
11 . The Eternal Afflict - San Diego 6:35
12 . Printed At Bismarck's Death - O' What Can Ail Thee 4:14
13 . Numb - Shithammer 7:33
14 . Relatives Menschsein - Die Zeit 4:57
15 . Blind Passengers - Yes Sir 3:16
16 . Armageddon Dildos - The Hunter 5:28
Код:
Exact Audio Copy V1.3 from 2. September 2016
Отчёт EAC об извлечении, выполненном 13. марта 2020, 11:41
Various / We Came To Dance Vol. IV
Дисковод: HL-DT-STDVD+-RW GU90N   Adapter: 1  ID: 0
Режим чтения                 : Достоверность
Использование точного потока : Да
Отключение кэша аудио        : Нет
Использование указателей C2  : Да
Коррекция смещения при чтении                     : 102
Способность читать области Lead-in и Lead-out     : Нет
Заполнение пропущенных сэмплов тишиной            : Да
Удаление блоков с тишиной в начале и конце        : Нет
При вычислениях CRC использовались нулевые сэмплы : Да
Интерфейс                                         : Встроенный Win32-интерфейс для Win NT/2000
Выходной формат : Внутренние WAV-операции
Формат сэмплов  : 44.100 Гц; 16 бит; стерео
TOC извлечённого CD
     Трек |   Старт  | Длительность | Начальный сектор | Конечный сектор
    ---------------------------------------------------------------------
       1  |  0:00.00 |    4:32.22   |           0      |      20421
       2  |  4:32.22 |    4:10.08   |       20422      |      39179
       3  |  8:42.30 |    3:27.60   |       39180      |      54764
       4  | 12:10.15 |    4:05.27   |       54765      |      73166
       5  | 16:15.42 |    5:37.25   |       73167      |      98466
       6  | 21:52.67 |    6:10.45   |       98467      |     126261
       7  | 28:03.37 |    3:25.48   |      126262      |     141684
       8  | 31:29.10 |    4:26.07   |      141685      |     161641
       9  | 35:55.17 |    4:23.70   |      161642      |     181436
      10  | 40:19.12 |    4:47.15   |      181437      |     202976
      11  | 45:06.27 |    6:34.63   |      202977      |     232589
      12  | 51:41.15 |    4:14.17   |      232590      |     251656
      13  | 55:55.32 |    7:35.25   |      251657      |     285806
      14  | 63:30.57 |    4:58.20   |      285807      |     308176
      15  | 68:29.02 |    3:17.55   |      308177      |     323006
      16  | 71:46.57 |    5:28.18   |      323007      |     347624
Характеристики диапазона извлечения и сообщения об ошибках
Выбранный диапазон
     Имя файла D:\We Came To Dance - Indie Dancefloor\Various - We Came To Dance  Vol. IV.1994\Various - We Came To Dance Vol. IV.wav
     Пиковый уровень 98.8 %
     Скорость извлечения 8.5 X
     Качество диапазона 99.9 %
     CRC копии 4D8A3B4E
     Копирование... OK
Ошибок не произошло
AccurateRip: сводка
Трек  1  : извлечено точно (доверие 10)  [DF405000]  (AR v2)
Трек  2  : извлечено точно (доверие 10)  [5D53D54A]  (AR v2)
Трек  3  : извлечено точно (доверие 10)  [E978BF4F]  (AR v2)
Трек  4  : извлечено точно (доверие 10)  [26E99680]  (AR v2)
Трек  5  : извлечено точно (доверие 10)  [0FF051FB]  (AR v2)
Трек  6  : извлечено точно (доверие 10)  [229FEC70]  (AR v2)
Трек  7  : извлечено точно (доверие 10)  [3074FB31]  (AR v2)
Трек  8  : извлечено точно (доверие 10)  [45439F21]  (AR v2)
Трек  9  : извлечено точно (доверие 10)  [2BC3B4CA]  (AR v2)
Трек 10  : извлечено точно (доверие 10)  [698740E9]  (AR v2)
Трек 11  : извлечено точно (доверие 10)  [C332AD6A]  (AR v2)
Трек 12  : извлечено точно (доверие 10)  [D4CC6414]  (AR v2)
Трек 13  : извлечено точно (доверие 10)  [F939A037]  (AR v2)
Трек 14  : извлечено точно (доверие 10)  [90C92FC1]  (AR v2)
Трек 15  : извлечено точно (доверие 10)  [DEFD1158]  (AR v2)
Трек 16  : извлечено точно (доверие 10)  [17F972D1]  (AR v2)
Все треки извлечены точно
Конец отчёта
---- CUETools DB Plugin V2.1.6
[CTDB TOCID: KPegr.pb3JCX0CNLkmblqfaPdLY-] found
Submit result: already submitted
Track | CTDB Status
  1   | (40/40) Accurately ripped
  2   | (40/40) Accurately ripped
  3   | (40/40) Accurately ripped
  4   | (40/40) Accurately ripped
  5   | (40/40) Accurately ripped
  6   | (40/40) Accurately ripped
  7   | (39/40) Accurately ripped
  8   | (39/40) Accurately ripped
  9   | (40/40) Accurately ripped
 10   | (40/40) Accurately ripped
 11   | (39/40) Accurately ripped
 12   | (39/40) Accurately ripped
 13   | (38/40) Accurately ripped
 14   | (39/40) Accurately ripped
 15   | (40/40) Accurately ripped
 16   | (39/40) Accurately ripped
==== Контрольная сумма отчёта B81C6A4A0D5E1ECFBD019352CFBA2BD6BBB2E7E01D17FD4303EC3175DA22DA02 ====
------------------------------------------------------------
Код:
REM GENRE Darkwave
REM DATE 1994
REM DISCID D3121B10
REM COMMENT "ExactAudioCopy v1.3"
PERFORMER "Various"
TITLE "We Came To Dance Vol. IV"
REM COMPOSER ""
FILE "Various - We Came To Dance Vol. IV.flac" WAVE
  TRACK 01 AUDIO
    TITLE "Souls"
    PERFORMER "Project Pitchfork"
    REM COMPOSER ""
    INDEX 01 00:00:00
  TRACK 02 AUDIO
    TITLE "Fatherland"
    PERFORMER "Die Krupps"
    REM COMPOSER ""
    INDEX 00 04:30:57
    INDEX 01 04:32:22
  TRACK 03 AUDIO
    TITLE "Physical Aggression"
    PERFORMER "Delay"
    REM COMPOSER ""
    INDEX 00 08:40:25
    INDEX 01 08:42:30
  TRACK 04 AUDIO
    TITLE "Bite Of God"
    PERFORMER "Die Form"
    REM COMPOSER ""
    INDEX 00 12:07:45
    INDEX 01 12:10:15
  TRACK 05 AUDIO
    TITLE "Don't Tame Your Soul"
    PERFORMER "Le.ther Strip"
    REM COMPOSER ""
    INDEX 00 16:14:27
    INDEX 01 16:15:42
  TRACK 06 AUDIO
    TITLE "Kain Und Abel"
    PERFORMER "Das Ich"
    REM COMPOSER ""
    INDEX 00 21:51:52
    INDEX 01 21:52:67
  TRACK 07 AUDIO
    TITLE "Virus Perform"
    PERFORMER "Steril"
    REM COMPOSER ""
    INDEX 00 28:01:42
    INDEX 01 28:03:37
  TRACK 08 AUDIO
    TITLE "Bitch"
    PERFORMER "Apoptygma Berzerk"
    REM COMPOSER ""
    INDEX 00 31:28:15
    INDEX 01 31:29:10
  TRACK 09 AUDIO
    TITLE "Hollow Eyes"
    PERFORMER "Dronning Maud Land"
    REM COMPOSER ""
    INDEX 00 35:53:65
    INDEX 01 35:55:17
  TRACK 10 AUDIO
    TITLE "Merciless"
    PERFORMER "Tilt!"
    REM COMPOSER ""
    INDEX 00 40:18:42
    INDEX 01 40:19:12
  TRACK 11 AUDIO
    TITLE "San Diego"
    PERFORMER "The Eternal Afflict"
    REM COMPOSER ""
    INDEX 00 45:04:35
    INDEX 01 45:06:27
  TRACK 12 AUDIO
    TITLE "O' What Can Ail Thee"
    PERFORMER "Printed At Bismarck's Death"
    REM COMPOSER ""
    INDEX 00 51:39:65
    INDEX 01 51:41:15
  TRACK 13 AUDIO
    TITLE "Shithammer"
    PERFORMER "Numb"
    REM COMPOSER ""
    INDEX 00 55:54:30
    INDEX 01 55:55:32
  TRACK 14 AUDIO
    TITLE "Die Zeit"
    PERFORMER "Relatives Menschsein"
    REM COMPOSER ""
    INDEX 00 63:29:07
    INDEX 01 63:30:57
  TRACK 15 AUDIO
    TITLE "Yes Sir"
    PERFORMER "Blind Passengers"
    REM COMPOSER ""
    INDEX 00 68:28:02
    INDEX 01 68:29:02
  TRACK 16 AUDIO
    TITLE "The Hunter"
    PERFORMER "Armageddon Dildos"
    REM COMPOSER ""
    INDEX 00 71:45:25
    INDEX 01 71:46:57
Код:
foobar2000 1.4 / Dynamic Range Meter 1.1.1
log date: 2020-03-13 11:41:52
--------------------------------------------------------------------------------
Analyzed: Delay / We Came To Dance Vol. IV (1)
          Die Form / We Came To Dance Vol. IV (2)
--------------------------------------------------------------------------------
DR         Peak         RMS     Duration Track
--------------------------------------------------------------------------------
DR10      -0.11 dB   -11.91 dB      3:28 03-Physical Aggression
DR13      -0.20 dB   -15.67 dB      4:05 04-Bite Of God
--------------------------------------------------------------------------------
Number of tracks:  2
Official DR value: DR12
Samplerate:        44100 Hz
Channels:          2
Bits per sample:   16
Bitrate:           1411 kbps
Codec:             PCM
================================================================================
--------------------------------------------------------------------------------
Analyzed: Le.ther Strip / We Came To Dance Vol. IV (1)
          Numb / We Came To Dance Vol. IV (2)
--------------------------------------------------------------------------------
DR         Peak         RMS     Duration Track
--------------------------------------------------------------------------------
DR11      -0.14 dB   -11.93 dB      5:37 05-Don't Tame Your Soul
DR10      -0.14 dB   -12.09 dB      7:35 13-Shithammer
--------------------------------------------------------------------------------
Number of tracks:  2
Official DR value: DR10
Samplerate:        44100 Hz
Channels:          2
Bits per sample:   16
Bitrate:           1411 kbps
Codec:             PCM
================================================================================
--------------------------------------------------------------------------------
Analyzed: Project Pitchfork / We Came To Dance Vol. IV (1)
          Relatives Menschsein / We Came To Dance Vol. IV (2)
--------------------------------------------------------------------------------
DR         Peak         RMS     Duration Track
--------------------------------------------------------------------------------
DR9       -0.14 dB   -11.79 dB      4:32 01-Souls
DR12      -0.14 dB   -14.14 dB      4:58 14-Die Zeit
--------------------------------------------------------------------------------
Number of tracks:  2
Official DR value: DR11
Samplerate:        44100 Hz
Channels:          2
Bits per sample:   16
Bitrate:           1411 kbps
Codec:             PCM
================================================================================
--------------------------------------------------------------------------------
Analyzed: Steril / We Came To Dance Vol. IV (1)
          The Eternal Afflict / We Came To Dance Vol. IV (2)
--------------------------------------------------------------------------------
DR         Peak         RMS     Duration Track
--------------------------------------------------------------------------------
DR10      -0.16 dB   -12.24 dB      3:26 07-Virus Perform
DR8       -0.10 dB   -10.92 dB      6:35 11-San Diego
--------------------------------------------------------------------------------
Number of tracks:  2
Official DR value: DR9
Samplerate:        44100 Hz
Channels:          2
Bits per sample:   16
Bitrate:           1411 kbps
Codec:             PCM
================================================================================
--------------------------------------------------------------------------------
Statistics for: 10-Merciless
Number of samples: 12665520
Duration: 4:47
--------------------------------------------------------------------------------
                 Left              Right
Peak Value:     -0.14 dB   ---     -0.14 dB
Avg RMS:       -12.15 dB   ---    -12.35 dB
DR channel:     11.21 dB   ---     11.37 dB
--------------------------------------------------------------------------------
Official DR Value: DR11
Samplerate:        44100 Hz
Channels:          2
Bits per sample:   16
Bitrate:           1411 kbps
Codec:             PCM
================================================================================
foobar2000 1.4 / Dynamic Range Meter 1.1.1
log date: 2020-03-13 11:41:49
--------------------------------------------------------------------------------
Statistics for: 06-Kain Und Abel
Number of samples: 16343460
Duration: 6:11
--------------------------------------------------------------------------------
                 Left              Right
Peak Value:     -0.14 dB   ---     -0.14 dB
Avg RMS:       -12.83 dB   ---    -12.82 dB
DR channel:     10.60 dB   ---     10.33 dB
--------------------------------------------------------------------------------
Official DR Value: DR10
Samplerate:        44100 Hz
Channels:          2
Bits per sample:   16
Bitrate:           1411 kbps
Codec:             PCM
==============================================================
Правила, инструкции, FAQ!!!
Торрент  Добавлен [26 июн 2020, 17:53] Скачать торрент Магнет ссылка
Скачать торрент
[ Размер 11.23 КБ / Просмотров 14 ]

Статус
Проверен 
 
Размер  521.37 МБ
Приватный: Нет (DHT включён)
.torrent скачан  0
 


     Отправить личное сообщение
   
Страница 1 из 1
Показать сообщения за:  Поле сортировки  
Начать новую тему Ответить на тему


Сейчас этот форум просматривают: нет зарегистрированных пользователей и гости: 0


Вы не можете начинать темы
Вы не можете отвечать на сообщения
Вы не можете редактировать свои сообщения
Вы не можете удалять свои сообщения
Вы не можете добавлять вложения

Перейти:  
cron