Начать новую тему Ответить на тему
Статистика раздачи
Размер: 520.14 МБ | Добавлен: 26 июн 2020, 20:40 | Скачали: 0
Сидеров: 0  [0 байт/сек]    Личеров: 0  [0 байт/сек]
Пред. тема | След. тема 

Автор
Сообщение

СообщениеДобавлено: 26 июн 2020, 20:40 

Ответить с цитатой 

Various ‎– Undercover Vol. III
Жанр: EBM, Goth Rock, Synth-pop, New Wave
Носитель: CD
Страна-производитель диска (релиза): Germany
Год издания: 1995
Издатель (лейбл): SPV Records
Номер по каталогу: SPV 084-38202
Аудиокодек: FLAC (*.flac)
Тип рипа: image+.cue
Продолжительность: 78:21
Источник: собственный рип
Наличие сканов в содержимом раздачи: нет
Треклист:
1 Waltari -A Forest 5:25
2 Jad Wio -Paint It Black 4:22
3 Die Krupps -Nothing Else Matters 6:07
4 Big Country -Paranoid 2:45
5 Yellow Car -That's Not Enough 2:27
6 In The Fields -Strawberry Fields Forever3:42
7 Whoa! -Video Killed The Radiostar 2:15
8 Tilt! -Running Up That Hill 4:56
9 Girls Under Glass -Listening Wind 4:46
10 Printed At Bismarck's Death -Crowds 3:09
11 Asylum -Children Of The Grave 5:01
12 Bauhaus -Telegram Sam 2:08
13 Heinrich Beats The Drum -Black Boys On Mopeds 3:48
14 Sabotage Qu'Est Ce Que C'Est -Come Together (Kowp Remix) 3:57
15 The Alarm -Rockin' In The Free World 3:58
16 Dorsetshire -Lady In Black 4:38
17 The Bates -Beautiful Noise 2:39
18 Kyoto Blue -Space Oddity 8:05
19 Iggy Pop -Sea Of Love 3:38
Код:
Exact Audio Copy V1.3 from 2. September 2016
Отчёт EAC об извлечении, выполненном 16. сентября 2019, 12:20
Various / Under Cover III
Дисковод: HL-DT-STDVD+-RW GU90N   Adapter: 1  ID: 0
Режим чтения                 : Достоверность
Использование точного потока : Да
Отключение кэша аудио        : Да
Использование указателей C2  : Нет
Комбинированное смещение чтения/записи            : 0
Способность читать области Lead-in и Lead-out     : Да
Заполнение пропущенных сэмплов тишиной            : Да
Удаление блоков с тишиной в начале и конце        : Нет
При вычислениях CRC использовались нулевые сэмплы : Да
Интерфейс                                         : Встроенный Win32-интерфейс для Win NT/2000
Выходной формат : Внутренние WAV-операции
Формат сэмплов  : 44.100 Гц; 16 бит; стерео
TOC извлечённого CD
     Трек |   Старт  | Длительность | Начальный сектор | Конечный сектор
    ---------------------------------------------------------------------
       1  |  0:00.00 |    5:27.62   |           0      |      24586
       2  |  5:27.62 |    4:23.58   |       24587      |      44369
       3  |  9:51.45 |    6:08.40   |       44370      |      72009
       4  | 16:00.10 |    2:47.02   |       72010      |      84536
       5  | 18:47.12 |    2:28.63   |       84537      |      95699
       6  | 21:16.00 |    3:44.15   |       95700      |     112514
       7  | 25:00.15 |    2:17.07   |      112515      |     122796
       8  | 27:17.22 |    4:58.20   |      122797      |     145166
       9  | 32:15.42 |    4:47.58   |      145167      |     166749
      10  | 37:03.25 |    3:10.72   |      166750      |     181071
      11  | 40:14.22 |    5:03.30   |      181072      |     203826
      12  | 45:17.52 |    2:10.35   |      203827      |     213611
      13  | 47:28.12 |    3:49.45   |      213612      |     230831
      14  | 51:17.57 |    3:58.43   |      230832      |     248724
      15  | 55:16.25 |    4:00.00   |      248725      |     266724
      16  | 59:16.25 |    4:39.72   |      266725      |     287721
      17  | 63:56.22 |    2:41.00   |      287722      |     299796
      18  | 66:37.22 |    8:06.25   |      299797      |     336271
      19  | 74:43.47 |    3:38.28   |      336272      |     352649
Характеристики диапазона извлечения и сообщения об ошибках
Выбранный диапазон
     Имя файла C:\Users\Zver\Downloads\Various Artist - Under Cover vol II\Various - Under Cover III.wav
     Подозрительная позиция 1:18:21
     Пиковый уровень 99.5 %
     Скорость извлечения 4.9 X
     Качество диапазона 99.9 %
     CRC копии DC257A80
     Копирование завершено
Были ошибки
Конец отчёта
---- CUETools DB Plugin V2.1.6
[CTDB TOCID: xGIyPwGUPN7O.e46FDjMMGyGgmo-] found
Submit result: xGIyPwGUPN7O.e46FDjMMGyGgmo- has been submitted
Track | CTDB Status
  1   | (12/12) Accurately ripped
  2   | (12/12) Accurately ripped
  3   | (12/12) Accurately ripped
  4   | (12/12) Accurately ripped
  5   | (12/12) Accurately ripped
  6   | (12/12) Accurately ripped
  7   | (12/12) Accurately ripped
  8   | (12/12) Accurately ripped
  9   | (12/12) Accurately ripped
 10   | (12/12) Accurately ripped
 11   | (12/12) Accurately ripped
 12   | (12/12) Accurately ripped
 13   | (12/12) Accurately ripped
 14   | (12/12) Accurately ripped
 15   | (12/12) Accurately ripped
 16   | (12/12) Accurately ripped
 17   | (12/12) Accurately ripped
 18   | (12/12) Accurately ripped
 19   | (12/12) Differs in 8957 samples @03:38:10-03:38:18
If you are sure that your rip contains errors, you can use CUETools to repair it.
Код:
REM GENRE Independent
REM DATE 1995
REM DISCID 3B125E13
REM COMMENT "ExactAudioCopy v1.3"
PERFORMER "Various"
TITLE "Under Cover III"
FILE "Various - Under Cover III.flac" WAVE
  TRACK 01 AUDIO
    TITLE "A Forest"
    PERFORMER "Waltari"
    INDEX 01 00:00:00
  TRACK 02 AUDIO
    TITLE "Paint It Black"
    PERFORMER "Jad Wio"
    INDEX 00 05:26:25
    INDEX 01 05:27:62
  TRACK 03 AUDIO
    TITLE "Nothing Else Matters"
    PERFORMER "Die Krupps"
    INDEX 00 09:49:62
    INDEX 01 09:51:45
  TRACK 04 AUDIO
    TITLE "Paranoid"
    PERFORMER "Big Country"
    INDEX 00 15:58:27
    INDEX 01 16:00:10
  TRACK 05 AUDIO
    TITLE "That's Not Enough"
    PERFORMER "Yellow Car"
    INDEX 00 18:45:30
    INDEX 01 18:47:12
  TRACK 06 AUDIO
    TITLE "Strawberryfields Forever"
    PERFORMER "In The Fields"
    INDEX 00 21:14:27
    INDEX 01 21:16:00
  TRACK 07 AUDIO
    TITLE "Video Killed The Radiostar"
    PERFORMER "Whoa!"
    INDEX 00 24:58:40
    INDEX 01 25:00:15
  TRACK 08 AUDIO
    TITLE "Running Up That Hill"
    PERFORMER "Tilt!"
    INDEX 00 27:15:45
    INDEX 01 27:17:22
  TRACK 09 AUDIO
    TITLE "Listen Wind"
    PERFORMER "Girls Under Glass"
    INDEX 00 32:13:40
    INDEX 01 32:15:42
  TRACK 10 AUDIO
    TITLE "Crowds"
    PERFORMER "Printed At Bismarck's Death"
    INDEX 00 37:01:30
    INDEX 01 37:03:25
  TRACK 11 AUDIO
    TITLE "Children Of The Grave"
    PERFORMER "Asylum"
    INDEX 00 40:12:20
    INDEX 01 40:14:22
  TRACK 12 AUDIO
    TITLE "Telegram Sam"
    PERFORMER "Bauhaus"
    INDEX 00 45:15:35
    INDEX 01 45:17:52
  TRACK 13 AUDIO
    TITLE "Black Boys On Mopeds"
    PERFORMER "Heinrich BeatsThe Drum"
    INDEX 00 47:26:25
    INDEX 01 47:28:12
  TRACK 14 AUDIO
    TITLE "Come Together (KOWP Remix)"
    PERFORMER "Sabotage Qu'est Ce Que C'est"
    INDEX 00 51:16:03
    INDEX 01 51:17:57
  TRACK 15 AUDIO
    TITLE "Rockin' In The Free World"
    PERFORMER "The Alarm"
    INDEX 00 55:14:40
    INDEX 01 55:16:25
  TRACK 16 AUDIO
    TITLE "Lady In Black"
    PERFORMER "Dorsetshire"
    INDEX 01 59:16:25
  TRACK 17 AUDIO
    TITLE "Beautiful Noise"
    PERFORMER "The Bates"
    INDEX 01 63:56:22
  TRACK 18 AUDIO
    TITLE "Space Oddity"
    PERFORMER "Kyoto Blue"
    INDEX 01 66:37:22
  TRACK 19 AUDIO
    TITLE "Sea Of Love"
    PERFORMER "Iggy Pop"
    INDEX 01 74:43:47
Правила, инструкции, FAQ!!!
Торрент  Добавлен [26 июн 2020, 20:40] Скачать торрент Магнет ссылка
Скачать торрент
[ Размер 10.84 КБ / Просмотров 6 ]

Статус
Проверен 
 
Размер  520.14 МБ
Приватный: Нет (DHT включён)
.torrent скачан  0
 


     Отправить личное сообщение
   
Страница 1 из 1
Показать сообщения за:  Поле сортировки  
Начать новую тему Ответить на тему


Сейчас этот форум просматривают: нет зарегистрированных пользователей и гости: 0


Вы не можете начинать темы
Вы не можете отвечать на сообщения
Вы не можете редактировать свои сообщения
Вы не можете удалять свои сообщения
Вы не можете добавлять вложения

Перейти:  
cron