Начать новую тему Ответить на тему
Статистика раздачи
Размер: 456.78 МБ | Добавлен: 26 июн 2020, 17:16 | Скачали: 0
Сидеров: 0  [0 байт/сек]    Личеров: 0  [0 байт/сек]
Пред. тема | След. тема 

Автор
Сообщение

СообщениеДобавлено: 26 июн 2020, 17:16 

Ответить с цитатой 

Gin Devo / Errata
Жанр: EBM
Страна-производитель диска: Italy
Год издания: 2012
Издатель (лейбл): EK Product
Номер по каталогу: EKPCD013
Страна: Belgium
Аудиокодек: FLAC (*.flac)
Тип рипа: image+.cue
Битрейт аудио: lossless
Продолжительность: 0:58:48.25
Источник (релизер): CD из личной коллекции.
Наличие сканов в содержимом раздачи: да
Треклист:
01. War Of The Machines 4:35
02. Out Of Control 6:32
03. Salted Flesh 6:30
04. Good Night Mr. President 8:45
05. Deep State 3:36
06. Twisted Heads 6:24
07. Scope Of Desire 6:35
08. Mind Control 5:35
09. Errata 10:13
Discogs
Код:
Exact Audio Copy V1.0 beta 3 from 29. August 2011
Отчёт EAC об извлечении, выполненном 3. июля 2012, 15:59
Gin Devo / Errata
Дисковод: PIONEER DVD-RW  DVR-XD10   Adapter: 1  ID: 0
Режим чтения                 : Достоверность
Использование точного потока : Да
Отключение кэша аудио        : Да
Использование указателей C2  : Нет
Коррекция смещения при чтении                     : 96
Способность читать области Lead-in и Lead-out     : Нет
Заполнение пропущенных сэмплов тишиной            : Да
Удаление блоков с тишиной в начале и конце        : Нет
При вычислениях CRC использовались нулевые сэмплы : Да
Интерфейс                                         : Встроенный Win32-интерфейс для Win NT/2000
Выходной формат          : Пользовательский кодировщик
Выбранный битрейт        : 1024 kBit/s
Качество                 : Высокий
Добавление ID3-тега      : Нет
Утилита сжатия           : C:\Program Files\Exact Audio Copy\FLAC\FLAC.EXE
Дополнительные параметры : -V -8 -T "Date=%year%" -T "Genre=%genre%" %source%
TOC извлечённого CD
     Трек |   Старт  | Длительность | Начальный сектор | Конечный сектор
    ---------------------------------------------------------------------
       1  |  0:00.00 |    4:35.49   |           0      |      20673
       2  |  4:35.49 |    6:32.17   |       20674      |      50090
       3  | 11:07.66 |    6:30.20   |       50091      |      79360
       4  | 17:38.11 |    8:45.22   |       79361      |     118757
       5  | 26:23.33 |    3:36.46   |      118758      |     135003
       6  | 30:00.04 |    6:24.01   |      135004      |     163804
       7  | 36:24.05 |    6:35.73   |      163805      |     193502
       8  | 43:00.03 |    5:35.12   |      193503      |     218639
       9  | 48:35.15 |   10:13.10   |      218640      |     264624
Характеристики диапазона извлечения и сообщения об ошибках
Выбранный диапазон
     Имя файла C:\Users\Алексей\Desktop\iPOD\Gin Devo - Errata.wav
     Пиковый уровень 100.0 %
     Скорость извлечения 1.8 X
     Качество диапазона 100.0 %
     CRC теста 95F51DEE
     CRC копии 95F51DEE
     Копирование... OK
Ошибок не произошло
AccurateRip: сводка
Трек  1  отсутствует в базе данных
Трек  2  отсутствует в базе данных
Трек  3  отсутствует в базе данных
Трек  4  отсутствует в базе данных
Трек  5  отсутствует в базе данных
Трек  6  отсутствует в базе данных
Трек  7  отсутствует в базе данных
Трек  8  отсутствует в базе данных
Трек  9  отсутствует в базе данных
Ни одного трека нет в базе AccurateRip
Конец отчёта
==== Контрольная сумма отчёта EBCEAD7D921362DFF153AF130510AE25C97DFA9BE73EDF6FE1DA85CD58ECC0D1 ====
Код:
REM GENRE EBM
REM DATE 2012
REM DISCID 810DC809
REM COMMENT "ExactAudioCopy v1.0b3"
PERFORMER "Gin Devo"
TITLE "Errata "
FILE "Gin Devo - Errata.flac" WAVE
  TRACK 01 AUDIO
    TITLE "War Of The Machines"
    PERFORMER "Gin Devo"
    INDEX 01 00:00:00
  TRACK 02 AUDIO
    TITLE "Out Of Control"
    PERFORMER "Gin Devo"
    INDEX 00 04:34:70
    INDEX 01 04:35:49
  TRACK 03 AUDIO
    TITLE "Salted Flesh"
    PERFORMER "Gin Devo"
    INDEX 01 11:07:66
  TRACK 04 AUDIO
    TITLE "Good Night Mr. President"
    PERFORMER "Gin Devo"
    INDEX 00 17:35:68
    INDEX 01 17:38:11
  TRACK 05 AUDIO
    TITLE "Deep State"
    PERFORMER "Gin Devo"
    INDEX 01 26:23:33
  TRACK 06 AUDIO
    TITLE "Twisted Heads"
    PERFORMER "Gin Devo"
    INDEX 00 29:56:32
    INDEX 01 30:00:04
  TRACK 07 AUDIO
    TITLE "Scope Of Disire"
    PERFORMER "Gin Devo"
    INDEX 01 36:24:05
  TRACK 08 AUDIO
    TITLE "Mind Control"
    PERFORMER "Gin Devo"
    INDEX 01 43:00:03
  TRACK 09 AUDIO
    TITLE "Errata"
    PERFORMER "Gin Devo"
    INDEX 00 48:31:69
    INDEX 01 48:35:15
Код:
[url=https://fastpic.ru/view/43/2012/0708/9ca5ed40198c18fe893468847712071c.jpg.html][img]http://i43.fastpic.ru/thumb/2012/0708/1c/9ca5ed40198c18fe893468847712071c.jpeg[/img][/url][url=https://fastpic.ru/view/43/2012/0708/0022865e0fd20826f1ec6f12e945d81e.jpg.html][img]http://i43.fastpic.ru/thumb/2012/0708/1e/0022865e0fd20826f1ec6f12e945d81e.jpeg[/img][/url][url=https://fastpic.ru/view/42/2012/0708/be6dd5d16c2fab1a28800e8f8a34533f.jpg.html][img]http://i42.fastpic.ru/thumb/2012/0708/3f/be6dd5d16c2fab1a28800e8f8a34533f.jpeg[/img][/url][url=https://fastpic.ru/view/41/2012/0708/8fefcf73f12d3ae177a86e8bbd15af67.jpg.html][img]http://i41.fastpic.ru/thumb/2012/0708/67/8fefcf73f12d3ae177a86e8bbd15af67.jpeg[/img][/url]
Правила, инструкции, FAQ!!!
Торрент  Добавлен [26 июн 2020, 17:16] Скачать торрент Магнет ссылка
Скачать торрент
[ Размер 18.86 КБ / Просмотров 5 ]

Статус
Проверен 
 
Размер  456.78 МБ
Приватный: Нет (DHT включён)
.torrent скачан  0
 


     Отправить личное сообщение
   
Страница 1 из 1
Показать сообщения за:  Поле сортировки  
Начать новую тему Ответить на тему


Сейчас этот форум просматривают: нет зарегистрированных пользователей и гости: 0


Вы не можете начинать темы
Вы не можете отвечать на сообщения
Вы не можете редактировать свои сообщения
Вы не можете удалять свои сообщения
Вы не можете добавлять вложения

Перейти:  
cron