Начать новую тему Ответить на тему
Статистика раздачи
Размер: 773.06 МБ | Добавлен: 26 июн 2020, 17:30 | Скачали: 0
Сидеров: 0  [0 байт/сек]    Личеров: 0  [0 байт/сек]
Пред. тема | След. тема 

Автор
Сообщение

СообщениеДобавлено: 26 июн 2020, 17:30 

Ответить с цитатой 

Head-Less / Rouge Et Noir [Limited Edition 2CD DigiPack]
Жанр: EBM, Futurepop, Synthpop
Страна-производитель диска: Germany
Год издания: 2007
Издатель (лейбл): Icare Media Distribution
Номер по каталогу: SXD-1943
Страна: Germany
Аудиокодек: FLAC (*.flac)
Тип рипа: image+.cue
Битрейт аудио: lossless
Продолжительность: CD1 - 45:36:00, CD2 - 1:00:57
Источник (релизер): Audio CD
Наличие сканов в содержимом раздачи: нет
Треклист:
1. Yes - i am
2. Triebjagd
3. Catch a bitch
4. Marthes garden
5. Adore
6. Rouge Et Noir
7. Ship Of Agony
8. Valentin:e
9. Seelensturm
10. Ehrenfeld
Код:
Exact Audio Copy V1.0 beta 3 from 29. August 2011
Отчёт EAC об извлечении, выполненном 14. июля 2012, 19:38
Head-Less / Rouge Et Noir (Special Promo Edition)
Дисковод: _NEC    DVD_RW ND-4570A   Adapter: 1  ID: 0
Режим чтения                 : Достоверность
Использование точного потока : Да
Отключение кэша аудио        : Да
Использование указателей C2  : Нет
Коррекция смещения при чтении                     : 48
Способность читать области Lead-in и Lead-out     : Нет
Заполнение пропущенных сэмплов тишиной            : Да
Удаление блоков с тишиной в начале и конце        : Нет
При вычислениях CRC использовались нулевые сэмплы : Да
Интерфейс                                         : Встроенный Win32-интерфейс для Win NT/2000
Выходной формат : Внутренние WAV-операции
Формат сэмплов  : 44.100 Гц; 16 бит; стерео
TOC извлечённого CD
     Трек |   Старт  | Длительность | Начальный сектор | Конечный сектор
    ---------------------------------------------------------------------
       1  |  0:00.00 |    1:10.49   |           0      |       5298
       2  |  1:10.49 |    5:33.47   |        5299      |      30320
       3  |  6:44.21 |    5:50.29   |       30321      |      56599
       4  | 12:34.50 |    3:34.10   |       56600      |      72659
       5  | 16:08.60 |    5:15.12   |       72660      |      96296
       6  | 21:23.72 |    6:14.60   |       96297      |     124406
       7  | 27:38.57 |    4:10.28   |      124407      |     143184
       8  | 31:49.10 |    4:09.10   |      143185      |     161869
       9  | 35:58.20 |    5:52.26   |      161870      |     188295
      10  | 41:50.46 |    3:45.42   |      188296      |     205212
Характеристики диапазона извлечения и сообщения об ошибках
Выбранный диапазон
     Имя файла H:\!!!\HEAD-LESS - ROUGE ET NOIR СВ\cd1\Head-Less - Rouge Et Noir (Special Promo Edition).wav
     Пиковый уровень 99.9 %
     Скорость извлечения 4.6 X
     Качество диапазона 100.0 %
     CRC теста D33111E4
     CRC копии D33111E4
     Копирование... OK
Ошибок не произошло
AccurateRip: сводка
Трек  1  точность не определена (достоверность 1)  [4EBF3A2C], AccurateRip вернул [CAFC6C73]  (AR v2)
Трек  2  отсутствует в базе данных
Трек  3  отсутствует в базе данных
Трек  4  отсутствует в базе данных
Трек  5  отсутствует в базе данных
Трек  6  отсутствует в базе данных
Трек  7  отсутствует в базе данных
Трек  8  отсутствует в базе данных
Трек  9  отсутствует в базе данных
Трек 10  отсутствует в базе данных
 1 трек(и) не удалось проверить на точность
 9 трек(и) не содержатся в базе AccurateRip
Ни один трек не прошёл проверки на точность
В вашей базе может быть иной вариант штамповки диска
Конец отчёта
------------------------------------------------------------
Код:
REM GENRE Darkwave
REM DATE 2007
REM DISCID 730AB00A
REM COMMENT "ExactAudioCopy v1.0b3"
PERFORMER "Head-Less"
TITLE "Rouge Et Noir (Special Promo Edition)"
FILE "Head-Less - Rouge Et Noir (Special Promo Edition).wav" WAVE
  TRACK 01 AUDIO
    TITLE "Yes - I Am"
    PERFORMER "Head-Less"
    INDEX 01 00:00:00
  TRACK 02 AUDIO
    TITLE "Triebjagd"
    PERFORMER "Head-Less"
    INDEX 01 01:10:49
  TRACK 03 AUDIO
    TITLE "Catch A Bitch"
    PERFORMER "Head-Less"
    INDEX 01 06:44:21
  TRACK 04 AUDIO
    TITLE "Marthes Garden"
    PERFORMER "Head-Less"
    INDEX 01 12:34:50
  TRACK 05 AUDIO
    TITLE "Adore"
    PERFORMER "Head-Less"
    INDEX 01 16:08:60
  TRACK 06 AUDIO
    TITLE "Rouge Et Noir"
    PERFORMER "Head-Less"
    INDEX 01 21:23:72
  TRACK 07 AUDIO
    TITLE "Ship Of Agony"
    PERFORMER "Head-Less"
    INDEX 01 27:38:57
  TRACK 08 AUDIO
    TITLE "Valentine"
    PERFORMER "Head-Less"
    INDEX 01 31:49:10
  TRACK 09 AUDIO
    TITLE "Seelensturm"
    PERFORMER "Head-Less"
    INDEX 01 35:58:20
  TRACK 10 AUDIO
    TITLE "Ehrenfeld"
    PERFORMER "Head-Less"
    INDEX 01 41:50:46
Код:
-----------------------
DON'T MODIFY THIS FILE
-----------------------
PERFORMER: auCDtect Task Manager, ver. 1.5.1RC3 build 1.5.1.4
Copyright (c) 2008-2010 y-soft. All rights reserved
[url=http://y-soft.org]http://y-soft.org[/url]
ANALYZER: auCDtect: CD records authenticity detector, version 0.8.2
Copyright (c) 2004 Oleg Berngardt. All rights reserved.
Copyright (c) 2004 Alexander Djourik. All rights reserved.
FILE: Head-Less - Rouge Et Noir (Special Promo Edition).flac
  Size: 356892768 Hash: 4C66CD0D9253CE158A4B3B3E4E23C4FF Accuracy: -m0
  Conclusion: CDDA 99%
  Signature: 8AA8C34B371F3AF4B20FCDB0A1C2BA30F5666DE8
Копия с двухплитного издания (Limited Edition).
Треклист:
1. Ship Of Agony (Edit)
2. Ship Of Agony (Extended)
3. Ship Of Agony (Club Mix)
4. Licht Im Grau
5. Ship of agony (assemblage 23 mix)
6. Licht Im Grau (Colony 5 Mix)
7. Ship Of Agony (Accessory Mix)
8. Precursor
9. Adore (Cephalgy Mix)
10. Ship Of Agony (Rector Scanner Mix)
Exact Audio Copy V1.0 beta 3 from 29. August 2011
Отчёт EAC об извлечении, выполненном 14. июля 2012, 20:06
Head-Less / Ship Of Agony
Дисковод: _NEC DVD_RW ND-4570A Adapter: 1 ID: 0
Режим чтения : Достоверность
Использование точного потока : Да
Отключение кэша аудио : Да
Использование указателей C2 : Нет
Коррекция смещения при чтении : 48
Способность читать области Lead-in и Lead-out : Нет
Заполнение пропущенных сэмплов тишиной : Да
Удаление блоков с тишиной в начале и конце : Нет
При вычислениях CRC использовались нулевые сэмплы : Да
Интерфейс : Встроенный Win32-интерфейс для Win NT/2000
Выходной формат : Внутренние WAV-операции
Формат сэмплов : 44.100 Гц; 16 бит; стерео
TOC извлечённого CD
Трек | Старт | Длительность | Начальный сектор | Конечный сектор
---------------------------------------------------------------------
1 | 0:00.00 | 4:38.34 | 0 | 20883
2 | 4:38.34 | 5:49.48 | 20884 | 47106
3 | 10:28.07 | 6:52.71 | 47107 | 78077
4 | 17:21.03 | 6:05.01 | 78078 | 105453
5 | 23:26.04 | 5:08.17 | 105454 | 128570
6 | 28:34.21 | 5:00.32 | 128571 | 151102
7 | 33:34.53 | 4:55.00 | 151103 | 173227
8 | 38:29.53 | 5:34.74 | 173228 | 198351
9 | 44:04.52 | 4:09.67 | 198352 | 217093
10 | 48:14.44 | 12:42.53 | 217094 | 274296
Характеристики диапазона извлечения и сообщения об ошибках
Выбранный диапазон
Имя файла H:\!!!\HEAD-LESS - ROUGE ET NOIR СВ\Head-Less - Ship Of Agony.wav
Пиковый уровень 100.0 %
Скорость извлечения 4.8 X
Качество диапазона 99.9 %
CRC теста 9D660AB3
CRC копии 9D660AB3
Копирование... OK
Ошибок не произошло
AccurateRip: сводка
Трек 1 : извлечено точно (доверие 1) [8DB2515D] (AR v1)
Трек 2 : извлечено точно (доверие 1) [D843577B] (AR v1)
Трек 3 : извлечено точно (доверие 1) [8AD1D9EE] (AR v1)
Трек 4 : извлечено точно (доверие 1) [B9FA5502] (AR v1)
Трек 5 : извлечено точно (доверие 1) [603E240B] (AR v1)
Трек 6 : извлечено точно (доверие 1) [5429E271] (AR v1)
Трек 7 : извлечено точно (доверие 1) [694CFB5D] (AR v1)
Трек 8 : извлечено точно (доверие 1) [AA17111B] (AR v1)
Трек 9 : извлечено точно (доверие 1) [CAAE8BA1] (AR v1)
Трек 10 : извлечено точно (доверие 1) [C6F72569] (AR v1)
Все треки извлечены точно
Конец отчёта
------------------------------------------------------------
REM DISCID 740E490A
REM COMMENT "ExactAudioCopy v1.0b3"
PERFORMER "Head-Less"
TITLE "Ship Of Agony"
FILE "Head-Less - Ship Of Agony.wav" WAVE
TRACK 01 AUDIO
TITLE "Ship Of Agony (Edit)"
PERFORMER "Head-Less"
INDEX 01 00:00:00
TRACK 02 AUDIO
TITLE "Ship Of Agony (Extended)"
PERFORMER "Head-Less"
INDEX 00 04:36:34
INDEX 01 04:38:34
TRACK 03 AUDIO
TITLE "Ship Of Agony (Club Mix)"
PERFORMER "Head-Less"
INDEX 00 10:26:06
INDEX 01 10:28:07
TRACK 04 AUDIO
TITLE "Licht Im Grau"
PERFORMER "Head-Less"
INDEX 00 17:19:04
INDEX 01 17:21:03
TRACK 05 AUDIO
TITLE "Ship Of Agony (Assemblage 23 Mix)"
PERFORMER "Head-Less"
INDEX 00 23:24:05
INDEX 01 23:26:04
TRACK 06 AUDIO
TITLE "Ship Of Agony (Colony 5 Mix)"
PERFORMER "Head-Less"
INDEX 00 28:32:20
INDEX 01 28:34:21
TRACK 07 AUDIO
TITLE "Ship Of Agony (Accessory Mix)"
PERFORMER "Head-Less"
INDEX 00 33:32:54
INDEX 01 33:34:53
TRACK 08 AUDIO
TITLE "Precursor"
PERFORMER "Head-Less"
INDEX 00 38:27:54
INDEX 01 38:29:53
TRACK 09 AUDIO
TITLE "Adora (Cephalgy Mix)"
PERFORMER "Head-Less"
INDEX 00 44:02:53
INDEX 01 44:04:52
TRACK 10 AUDIO
TITLE "Ship Of Agony (Rector Scanner Mix)"
PERFORMER "Head-Less"
INDEX 00 48:12:45
INDEX 01 48:14:44
-----------------------
DON'T MODIFY THIS FILE
-----------------------
PERFORMER: auCDtect Task Manager, ver. 1.5.1RC3 build 1.5.1.4
Copyright (c) 2008-2010 y-soft. All rights reserved
http://y-soft.org
ANALYZER: auCDtect: CD records authenticity detector, version 0.8.2
Copyright (c) 2004 Oleg Berngardt. All rights reserved.
Copyright (c) 2004 Alexander Djourik. All rights reserved.
FILE: Head-Less - Ship Of Agony.flac
Size: 453667835 Hash: FB477218262D3C27EF1EDFA41C190417 Accuracy: -m0
Conclusion: CDDA 100%
Signature: 4127E169F8ED0554BC6E4B4461987436A6CA664C
Правила, инструкции, FAQ!!!
Торрент  Добавлен [26 июн 2020, 17:30] Скачать торрент Магнет ссылка
Скачать торрент
[ Размер 16.1 КБ / Просмотров 2 ]

Статус
Проверен 
 
Размер  773.06 МБ
Приватный: Нет (DHT включён)
.torrent скачан  0
 


     Отправить личное сообщение
   
Страница 1 из 1
Показать сообщения за:  Поле сортировки  
Начать новую тему Ответить на тему


Сейчас этот форум просматривают: нет зарегистрированных пользователей и гости: 0


Вы не можете начинать темы
Вы не можете отвечать на сообщения
Вы не можете редактировать свои сообщения
Вы не можете удалять свои сообщения
Вы не можете добавлять вложения

Перейти:  
cron