Начать новую тему Ответить на тему
Статистика раздачи
Размер: 519.85 МБ | Добавлен: 26 июн 2020, 20:18 | Скачали: 0
Сидеров: 0  [0 байт/сек]    Личеров: 0  [0 байт/сек]
Пред. тема | След. тема 

Автор
Сообщение

СообщениеДобавлено: 26 июн 2020, 20:18 

Ответить с цитатой 

Rotersand - Truth Is Fanatic Again
Жанр: EBM, Futurepop
Носитель: CD
Год издания: 2014
Издатель (лейбл): Trisol
Каталожный номер: TRI 505 CD, Trisol ‎– TRI 505
Страна: Germany
Аудиокодек: FLAC (*.flac)
Тип рипа: image+.cue
Битрейт аудио: lossless
Продолжительность: 01:13:59
Источник (релизер): Собственный диск
Наличие сканов в содержимом раздачи: нет

Треклист:
01-Electric Elephant
02-Truth Is Fanatic Again (feat. Mark Jackson of VNV Nation)
03-Almost Violent (Deliverance Remix by Solitary Experiments)
04-Content Killer (Refreshed feat. Thomas Rainer)
05-Electronic World Transmission (Ionnokx Remix)
06-The Fire (Pre/Verse Recreation)
07-Social Distortion (Ron Spank Remix feat. Fraulein Plastique and Gentleman Junkie)
08-One Level Down (Amnistia Version)
09-Merging Oceans (Neuroticfish Remix)
10-Lifelight (feat. Aesthetic Perfection)
11-Move On (feat. Florian Schafer of Noyce TM)
12-Sonic Agony (Relentless Edit)
13-Hush (Remodelled)
14-Not About You
15-The Chase
Код:
Exact Audio Copy V1.0 beta 3 from 29. August 2011
Отчёт EAC об извлечении, выполненном 25. декабря 2014, 22:01
Rotersand / Truth Is Fanatic Again
Дисковод: TSSTcorpCDDVDW SH-S223B   Adapter: 0  ID: 0
Режим чтения                 : Достоверность
Использование точного потока : Да
Отключение кэша аудио        : Да
Использование указателей C2  : Нет
Коррекция смещения при чтении                     : 6
Способность читать области Lead-in и Lead-out     : Нет
Заполнение пропущенных сэмплов тишиной            : Да
Удаление блоков с тишиной в начале и конце        : Нет
При вычислениях CRC использовались нулевые сэмплы : Да
Интерфейс                                         : Встроенный Win32-интерфейс для Win NT/2000
Выходной формат          : Пользовательский кодировщик
Выбранный битрейт        : 128 kBit/s
Качество                 : Высокий
Добавление ID3-тега      : Нет
Утилита сжатия           : C:\Program Files (x86)\Exact Audio Copy\Flac\flac.exe
Дополнительные параметры : -V -8 -T "Date=%year%" -T "Genre=%genre%" %source%
TOC извлечённого CD
     Трек |   Старт  | Длительность | Начальный сектор | Конечный сектор
    ---------------------------------------------------------------------
       1  |  0:00.00 |    4:29.31   |           0      |      20205
       2  |  4:29.31 |    4:49.69   |       20206      |      41949
       3  |  9:19.25 |    6:36.00   |       41950      |      71649
       4  | 15:55.25 |    5:02.68   |       71650      |      94367
       5  | 20:58.18 |    4:14.64   |       94368      |     113481
       6  | 25:13.07 |    4:17.70   |      113482      |     132826
       7  | 29:31.02 |    5:04.62   |      132827      |     155688
       8  | 34:35.64 |    4:03.43   |      155689      |     173956
       9  | 38:39.32 |    5:16.14   |      173957      |     197670
      10  | 43:55.46 |    5:10.66   |      197671      |     220986
      11  | 49:06.37 |    4:58.40   |      220987      |     243376
      12  | 54:05.02 |    4:41.61   |      243377      |     264512
      13  | 58:46.63 |    4:32.15   |      264513      |     284927
      14  | 63:19.03 |    4:03.30   |      284928      |     303182
      15  | 67:22.33 |    6:37.35   |      303183      |     332992
Характеристики диапазона извлечения и сообщения об ошибках
Выбранный диапазон
     Имя файла M:\Rotersand - Truth Is Fanatic Again.wav
     Пиковый уровень 98.8 %
     Скорость извлечения 8.0 X
     Качество диапазона 100.0 %
     CRC теста 43979348
     CRC копии 43979348
     Копирование... OK
Ошибок не произошло
AccurateRip: сводка
Трек  1  отсутствует в базе данных
Трек  2  отсутствует в базе данных
Трек  3  отсутствует в базе данных
Трек  4  отсутствует в базе данных
Трек  5  отсутствует в базе данных
Трек  6  отсутствует в базе данных
Трек  7  отсутствует в базе данных
Трек  8  отсутствует в базе данных
Трек  9  отсутствует в базе данных
Трек 10  отсутствует в базе данных
Трек 11  отсутствует в базе данных
Трек 12  отсутствует в базе данных
Трек 13  отсутствует в базе данных
Трек 14  отсутствует в базе данных
Трек 15  отсутствует в базе данных
Ни одного трека нет в базе AccurateRip
Конец отчёта
==== Контрольная сумма отчёта 47E50433D527D35F57726A7FAD169425245D58E9CE70DFFE6832AB6AFEFCF5F0 ====
Код:
REM DISCID CF11570F
REM COMMENT "ExactAudioCopy v1.0b3"
PERFORMER "Rotersand"
TITLE "Truth Is Fanatic Again"
FILE "Rotersand - Truth Is Fanatic Again.flac" WAVE
  TRACK 01 AUDIO
    TITLE "Electric Elephant"
    PERFORMER "Rotersand"
    INDEX 01 00:00:00
  TRACK 02 AUDIO
    TITLE "Truth Is Fanatic - feat. Mark Jackson of VNV Nation"
    PERFORMER "Rotersand"
    INDEX 00 04:29:21
    INDEX 01 04:29:31
  TRACK 03 AUDIO
    TITLE "Almost Violent - deliverance remix by Solitary Experiments"
    PERFORMER "Rotersand"
    INDEX 00 09:19:20
    INDEX 01 09:19:25
  TRACK 04 AUDIO
    TITLE "Content Killer - refreshed feat. Thomas Rainer"
    PERFORMER "Rotersand"
    INDEX 00 15:55:02
    INDEX 01 15:55:25
  TRACK 05 AUDIO
    TITLE "Electronic World Transmission - Ionnokx remix"
    PERFORMER "Rotersand"
    INDEX 00 20:57:54
    INDEX 01 20:58:18
  TRACK 06 AUDIO
    TITLE "The Fire - Pre/Verse recreation"
    PERFORMER "Rotersand"
    INDEX 00 25:11:51
    INDEX 01 25:13:07
  TRACK 07 AUDIO
    TITLE "Social Distortion - Ron Spank remix feat. Frдulein Plastique and Gentleman Ju..."
    PERFORMER "Rotersand"
    INDEX 00 29:30:42
    INDEX 01 29:31:02
  TRACK 08 AUDIO
    TITLE "One Level Down - Amnistia version"
    PERFORMER "Rotersand"
    INDEX 00 34:33:72
    INDEX 01 34:35:64
  TRACK 09 AUDIO
    TITLE "Merging Oceans - Neuroticfish remix"
    PERFORMER "Rotersand"
    INDEX 00 38:38:01
    INDEX 01 38:39:32
  TRACK 10 AUDIO
    TITLE "Llifelight feat. Aesthetic Perfection"
    PERFORMER "Rotersand"
    INDEX 00 43:55:18
    INDEX 01 43:55:46
  TRACK 11 AUDIO
    TITLE "Move On - feat. Florian Schдfer of Noyce TM"
    PERFORMER "Rotersand"
    INDEX 00 49:05:59
    INDEX 01 49:06:37
  TRACK 12 AUDIO
    TITLE "Sonic Agony - relentless edit"
    PERFORMER "Rotersand"
    INDEX 00 54:04:37
    INDEX 01 54:05:02
  TRACK 13 AUDIO
    TITLE "Hush - remodelled"
    PERFORMER "Rotersand"
    INDEX 00 58:46:11
    INDEX 01 58:46:63
  TRACK 14 AUDIO
    TITLE "Not About You"
    PERFORMER "Rotersand"
    INDEX 00 63:18:43
    INDEX 01 63:19:03
  TRACK 15 AUDIO
    TITLE "The Chase"
    PERFORMER "Rotersand"
    INDEX 00 67:22:02
    INDEX 01 67:22:33
Правила, инструкции, FAQ!!!
Торрент  Добавлен [26 июн 2020, 20:18] Скачать торрент Магнет ссылка
Скачать торрент
[ Размер 10.79 КБ / Просмотров 6 ]

Статус
Проверен 
 
Размер  519.85 МБ
Приватный: Нет (DHT включён)
.torrent скачан  0
 


     Отправить личное сообщение
   
Страница 1 из 1
Показать сообщения за:  Поле сортировки  
Начать новую тему Ответить на тему


Сейчас этот форум просматривают: нет зарегистрированных пользователей и гости: 0


Вы не можете начинать темы
Вы не можете отвечать на сообщения
Вы не можете редактировать свои сообщения
Вы не можете удалять свои сообщения
Вы не можете добавлять вложения

Перейти:  
cron