Начать новую тему Ответить на тему
Статистика раздачи
Размер: 173.01 МБ | Добавлен: 26 июн 2020, 17:06 | Скачали: 0
Сидеров: 0  [0 байт/сек]    Личеров: 0  [0 байт/сек]
Пред. тема | След. тема 

Автор
Сообщение

СообщениеДобавлено: 26 июн 2020, 17:06 

Ответить с цитатой 

Funker Vogt - Gunman (MCD)
Жанр: EBM / Futurepop
Год выпуска диска: 2000
Производитель диска: US
Аудио кодек: APE
Тип рипа: image+.cue
Битрейт аудио: lossless
Продолжительность: 25:36
Трэклист:
1 Gunman (Classic) (4:17)
2 F-117 (4:52)
3 Gunman (Crossed) (4:03)
4 Gunman (Female) (6:28)
5 Nuclear Winter (Frost-Bitten) (5:30)
Доп. информация: Metropolis; MET 174
Код:
Exact Audio Copy V0.99 prebeta 4 from 23. January 2008
EAC extraction logfile from 3. December 2008, 18:25
Funker Vogt / Gunman
Used drive  : TEAC    DV-W520GS   Adapter: 5  ID: 0
Read mode               : Secure
Utilize accurate stream : Yes
Defeat audio cache      : Yes
Make use of C2 pointers : No
Read offset correction                      : 6
Overread into Lead-In and Lead-Out          : No
Fill up missing offset samples with silence : Yes
Delete leading and trailing silent blocks   : No
Null samples used in CRC calculations       : Yes
Used interface                              : Installed external ASPI interface
Used output format : Internal WAV Routines
Sample format      : 44.100 Hz; 16 Bit; Stereo
TOC of the extracted CD
     Track |   Start  |  Length  | Start sector | End sector
    ---------------------------------------------------------
        1  |  0:00.00 |  4:19.19 |         0  |       19443
        2  |  4:19.19 |  4:54.16 |     19444  |       41509
        3  |  9:13.35 |  4:20.42 |     41510  |       61051
        4  | 13:34.02 |  6:30.12 |     61052  |       90313
        5  | 20:04.14 |  5:31.66 |     90314  |      115204
Range status and errors
Selected range
   Filename J:\Funker Vogt - Gunman\CDImage.wav
   Peak level 100.0 %
   Range quality 100.0 %
   Test CRC 018165FC
   Copy CRC 018165FC
   Copy OK
No errors occurred
AccurateRip summary
Track  1  not present in database
Track  2  not present in database
Track  3  not present in database
Track  4  not present in database
Track  5  not present in database
None of the tracks are present in the AccurateRip database
End of status report
Код:
AUDIOCHECKER v2.0 beta (build 457) - by Dester - opdester@freemail.hu
~~~~~~~~~~~~~~~~~~~~~~~~~~~~~~~~~~
-=== DO NOT EDIT THIS FILE! ===-
Path: ...\Funker Vogt - Gunman
1 -=- CDImage.wav -=- CDDA (100%)
190127764
Правила, инструкции, FAQ!!!
Торрент  Добавлен [26 июн 2020, 17:06] Скачать торрент Магнет ссылка
Скачать торрент
[ Размер 14.21 КБ / Просмотров 3 ]

Статус
Проверен 
 
Размер  173.01 МБ
Приватный: Нет (DHT включён)
.torrent скачан  0
 


     Отправить личное сообщение
   
Страница 1 из 1
Показать сообщения за:  Поле сортировки  
Начать новую тему Ответить на тему


Сейчас этот форум просматривают: нет зарегистрированных пользователей и гости: 0


Вы не можете начинать темы
Вы не можете отвечать на сообщения
Вы не можете редактировать свои сообщения
Вы не можете удалять свои сообщения
Вы не можете добавлять вложения

Перейти:  
cron