Начать новую тему Ответить на тему
Статистика раздачи
Размер: 181.74 МБ | Добавлен: 26 июн 2020, 17:21 | Скачали: 0
Сидеров: 0  [0 байт/сек]    Личеров: 0  [0 байт/сек]
Пред. тема | След. тема 

Автор
Сообщение

СообщениеДобавлено: 26 июн 2020, 17:21 

Ответить с цитатой 

Funker Vogt - Fallen Hero (MCD)

Жанр: EBM / Futurepop
Год выпуска диска: 2005
Производитель диска: Germany
Аудио кодек: APE
Тип рипа: image+.cue
Битрейт аудио: lossless
Продолжительность: 28:10
Трэклист:
1 Fallen Hero (5:07)
2 Fallen Hero (Jekyll&Hyde-Remix) (3:49) Remix - Birthday Massacre, The
3 Pain (5:24)
4 Fallen Hero (Vereinigt) (4:58)
5 Fallen Hero (Underwater Pilots-Remix) (4:58) Remix - Underwater Pilots
6 Our Battlefield (3:49)
Доп. информация: Synthetic Symphony/ SPV 055-63903 CDS
Код:
Exact Audio Copy V0.99 prebeta 4 from 23. January 2008
EAC extraction logfile from 3. December 2008, 18:07
Funker Vogt / Fallen Hero
Used drive  : TEAC    DV-W520GS   Adapter: 5  ID: 0
Read mode               : Secure
Utilize accurate stream : Yes
Defeat audio cache      : Yes
Make use of C2 pointers : No
Read offset correction                      : 6
Overread into Lead-In and Lead-Out          : No
Fill up missing offset samples with silence : Yes
Delete leading and trailing silent blocks   : No
Null samples used in CRC calculations       : Yes
Used interface                              : Installed external ASPI interface
Used output format : Internal WAV Routines
Sample format      : 44.100 Hz; 16 Bit; Stereo
TOC of the extracted CD
     Track |   Start  |  Length  | Start sector | End sector
    ---------------------------------------------------------
        1  |  0:00.00 |  5:07.59 |         0  |       23083
        2  |  5:07.59 |  3:49.40 |     23084  |       40298
        3  |  8:57.24 |  5:24.71 |     40299  |       64669
        4  | 14:22.20 |  4:58.48 |     64670  |       87067
        5  | 19:20.68 |  4:58.41 |     87068  |      109458
        6  | 24:19.34 |  3:49.22 |    109459  |      126655
Range status and errors
Selected range
   Filename J:\Funker Vogt - Fallen Hero CD5\CDImage.wav
   Peak level 100.0 %
   Range quality 100.0 %
   Test CRC D6CD3CAE
   Copy CRC D6CD3CAE
   Copy OK
No errors occurred
AccurateRip summary
Track  1  accurately ripped (confidence 2)  [8F823DD4]
Track  2  accurately ripped (confidence 2)  [F2E17C1A]
Track  3  accurately ripped (confidence 2)  [D4B3F794]
Track  4  accurately ripped (confidence 2)  [A1A369F2]
Track  5  accurately ripped (confidence 2)  [416C75DD]
Track  6  accurately ripped (confidence 2)  [C489FCC9]
All tracks accurately ripped
End of status report
Код:
AUDIOCHECKER v2.0 beta (build 457) - by Dester - opdester@freemail.hu
~~~~~~~~~~~~~~~~~~~~~~~~~~~~~~~~~~
-=== DO NOT EDIT THIS FILE! ===-
Path: ...\Funker Vogt - Fallen Hero CD5
1 -=- CDImage.wav -=- CDDA (100%)
190127764
Правила, инструкции, FAQ!!!
Торрент  Добавлен [26 июн 2020, 17:21] Скачать торрент Магнет ссылка
Скачать торрент
[ Размер 14.96 КБ / Просмотров 14 ]

Статус
Проверен 
 
Размер  181.74 МБ
Приватный: Нет (DHT включён)
.torrent скачан  0
 


     Отправить личное сообщение
   
Страница 1 из 1
Показать сообщения за:  Поле сортировки  
Начать новую тему Ответить на тему


Сейчас этот форум просматривают: нет зарегистрированных пользователей и гости: 0


Вы не можете начинать темы
Вы не можете отвечать на сообщения
Вы не можете редактировать свои сообщения
Вы не можете удалять свои сообщения
Вы не можете добавлять вложения

Перейти:  
cron