Начать новую тему Ответить на тему
Статистика раздачи
Размер: 223.55 МБ | Добавлен: 26 июн 2020, 17:29 | Скачали: 0
Сидеров: 0  [0 байт/сек]    Личеров: 0  [0 байт/сек]
Пред. тема | След. тема 

Автор
Сообщение

СообщениеДобавлено: 26 июн 2020, 17:29 

Ответить с цитатой 

Funker Vogt - Date Of Expiration
Жанр: EBM / Futurepop
Год выпуска диска: 2002
Производитель диска: Germany
Аудио кодек: APE
Тип рипа: image+.cue
Битрейт аудио: lossless
Продолжительность: 25:51
Трэклист:
1 Date Of Expiration (Expired) (4:36)
2 Date Of Expiration (Mouldy) (4:40)
3 Second World (5:18)
4 Date Of Expiration (Fresh) (4:49)
5 Traumatic Event (6:26
Доп. информация: Synthetic Symphony; SPV 055-63463 CDS
Код:
Exact Audio Copy V0.99 prebeta 4 from 23. January 2008
EAC extraction logfile from 6. June 2008, 10:26
Funker Vogt / Date Of Expiration
Used drive  : PLEXTOR CD-R   PX-W4824A   Adapter: 1  ID: 1
Read mode               : Secure
Utilize accurate stream : Yes
Defeat audio cache      : Yes
Make use of C2 pointers : No
Read offset correction                      : 98
Overread into Lead-In and Lead-Out          : No
Fill up missing offset samples with silence : Yes
Delete leading and trailing silent blocks   : No
Null samples used in CRC calculations       : Yes
Used interface                              : Installed external ASPI interface
Used output format : Internal WAV Routines
Sample format      : 44.100 Hz; 16 Bit; Stereo
TOC of the extracted CD
     Track |   Start  |  Length  | Start sector | End sector
    ---------------------------------------------------------
        1  |  0:00.00 |  4:35.64 |         0  |       20688
        2  |  4:35.64 |  4:39.52 |     20689  |       41665
        3  |  9:15.41 |  5:18.26 |     41666  |       65541
        4  | 14:33.67 |  4:48.54 |     65542  |       87195
        5  | 19:22.46 |  6:27.25 |     87196  |      116245
Range status and errors
Selected range
   Filename C:\Funker Vogt - Date Of Expiration CD5\CDImage.wav
   Peak level 100.0 %
   Range quality 100.0 %
   Test CRC 29564A98
   Copy CRC 29564A98
   Copy OK
No errors occurred
End of status report
Код:
AUDIOCHECKER v2.0 beta (build 457) - by Dester - opdester@freemail.hu
~~~~~~~~~~~~~~~~~~~~~~~~~~~~~~~~~~
-=== DO NOT EDIT THIS FILE! ===-
Path: ...\Funker Vogt - Date Of Expiration CD5
1 -=- CDImage.wav -=- CDDA (94%)
162884196
Правила, инструкции, FAQ!!!
Торрент  Добавлен [26 июн 2020, 17:29] Скачать торрент Магнет ссылка
Скачать торрент
[ Размер 18.1 КБ / Просмотров 7 ]

Статус
Проверен 
 
Размер  223.55 МБ
Приватный: Нет (DHT включён)
.torrent скачан  0
 


     Отправить личное сообщение
   
Страница 1 из 1
Показать сообщения за:  Поле сортировки  
Начать новую тему Ответить на тему


Сейчас этот форум просматривают: нет зарегистрированных пользователей и гости: 0


Вы не можете начинать темы
Вы не можете отвечать на сообщения
Вы не можете редактировать свои сообщения
Вы не можете удалять свои сообщения
Вы не можете добавлять вложения

Перейти:  
cron