Начать новую тему Ответить на тему
Статистика раздачи
Размер: 880.4 МБ | Добавлен: 26 июн 2020, 19:45 | Скачали: 0
Сидеров: 0  [0 байт/сек]    Личеров: 0  [0 байт/сек]
Пред. тема | След. тема 

Автор
Сообщение

СообщениеДобавлено: 26 июн 2020, 19:45 

Ответить с цитатой 

#777
FrontAngel



Жанр: EBM / Futurepop
Страна: Germany (Wiesbaden, Hesse)
Аудиокодек: FLAC (*.flac)
Тип рипа: image+.cue
Битрейт аудио: lossless
Продолжительность: 01:28:33
Источник (релизер): свои рипы
Наличие сканов в содержимом раздачи: да



#777Издатель (лейбл): FrontAngel-Music
Номер по каталогу: FA001CD
Продолжительность: 00:45:05
Трек-лист:
01. 19HundertPaar&80. (04:14)
02. Space Night. (03:13)
03. Bauchgefühl. (04:21)
04. Menschen. (04:24)
05. Warum. (03:45)
06. Auto. (03:39)
07. Kalt Wie Stahl. (03:10)
08. Abschaum. (03:34)
09. Eiskalt. (03:42)
10. Schwesterherz. (03:52)
11. Gefangen In Meinem Körper. (03:41)
12. Gitterstäbe. (03:30)
Код:
Exact Audio Copy V1.0 beta 3 from 29. August 2011
EAC extraction logfile from 21. September 2014, 0:02
FrontAngel / Perplex
Used drive  : PIONEER DVD-RW  DVR-111D   Adapter: 0  ID: 0
Read mode               : Secure
Utilize accurate stream : Yes
Defeat audio cache      : Yes
Make use of C2 pointers : No
Read offset correction                      : 48
Overread into Lead-In and Lead-Out          : No
Fill up missing offset samples with silence : Yes
Delete leading and trailing silent blocks   : No
Null samples used in CRC calculations       : Yes
Used interface                              : Native Win32 interface for Win NT & 2000
Used output format              : User Defined Encoder
Selected bitrate                : 1024 kBit/s
Quality                         : High
Add ID3 tag                     : No
Command line compressor         : D:\Flac\flac.exe
Additional command line options : -V -8 -T "Date=%year%" -T "Genre=%genre%" %source%
TOC of the extracted CD
     Track |   Start  |  Length  | Start sector | End sector
    ---------------------------------------------------------
        1  |  0:00.00 |  4:14.20 |         0    |    19069
        2  |  4:14.20 |  3:13.59 |     19070    |    33603
        3  |  7:28.04 |  4:21.73 |     33604    |    53251
        4  | 11:50.02 |  4:24.20 |     53252    |    73071
        5  | 16:14.22 |  3:45.58 |     73072    |    90004
        6  | 20:00.05 |  3:39.43 |     90005    |   106472
        7  | 23:39.48 |  3:10.06 |    106473    |   120728
        8  | 26:49.54 |  3:34.31 |    120729    |   136809
        9  | 30:24.10 |  3:42.15 |    136810    |   153474
       10  | 34:06.25 |  3:52.53 |    153475    |   170927
       11  | 37:59.03 |  3:41.65 |    170928    |   187567
       12  | 41:40.68 |  3:30.27 |    187568    |   203344
Range status and errors
Selected range
     Filename D:\Rips from Dаrkmind\FrontAngel - Perplex.wav
     Peak level 99.8 %
     Extraction speed 6.5 X
     Range quality 100.0 %
     Test CRC 2DCD5160
     Copy CRC 2DCD5160
     Copy OK
No errors occurred
AccurateRip summary
Track  1  not present in database
Track  2  not present in database
Track  3  not present in database
Track  4  not present in database
Track  5  not present in database
Track  6  not present in database
Track  7  not present in database
Track  8  not present in database
Track  9  not present in database
Track 10  not present in database
Track 11  not present in database
Track 12  not present in database
None of the tracks are present in the AccurateRip database
End of status report
---- CUETools DB Plugin V2.1.4
[CTDB TOCID: vKp0DLUFMtV1GhUUQoCFuHHO2so-] disk not present in database
Submit result: vKp0DLUFMtV1GhUUQoCFuHHO2so- has been uploaded
==== Log checksum 2A31E6529A7E794BC055A294D688DE6D4E7C63479C594037411C2FE91078A314 ====
Код:
-----------------------
DON'T MODIFY THIS FILE
-----------------------
PERFORMER: auCDtect Task Manager, ver. 1.6.0 RC1 build 1.6.0.1
Copyright (c) 2008-2010 y-soft. All rights reserved
[url=http://y-soft.org]http://y-soft.org[/url]
ANALYZER: auCDtect: CD records authenticity detector, version 0.8.2
Copyright (c) 2004 Oleg Berngardt. All rights reserved.
Copyright (c) 2004 Alexander Djourik. All rights reserved.
FILE: FrontAngel - Perplex.flac
  Size: 327247401 Hash: 37FEF0900AA722D0D771A36D5BB7EC30 Accuracy: -m0
  Conclusion: CDDA 100%
  Signature: 3CADF08428662E152C7FFF07AF32C192D5E0DD89
All songs written by Chris Bernhardt & Diana Dohmen.
Lyrics & vocals by Diana Dohmen.
Recorded & mastered at SLC-Production by Chris Bernhardt.
#777Издатель (лейбл): FrontAngel-Music
Номер по каталогу: FA002CD
Продолжительность: 00:43:28
Трек-лист:
01. Verliebt. (04:00)
02. Wunderschöne Welt. (04:18)
03. Traumreisen. (04:20)
04. Computer Problem. (03:18)
05. Sucht. (03:30)
06. Mir Egal. (03:52)
07. Alltagsstress. (04:33)
08. Schwerverbrecher. (04:50)
09. Und Wir Tanzen. (04:10)
10. Gefühle. (06:37)
Код:
Exact Audio Copy V1.0 beta 3 from 29. August 2011
EAC extraction logfile from 21. September 2014, 12:37
FrontAngel / Paradox
Used drive  : PIONEER DVD-RW  DVR-111D   Adapter: 0  ID: 0
Read mode               : Secure
Utilize accurate stream : Yes
Defeat audio cache      : Yes
Make use of C2 pointers : No
Read offset correction                      : 48
Overread into Lead-In and Lead-Out          : No
Fill up missing offset samples with silence : Yes
Delete leading and trailing silent blocks   : No
Null samples used in CRC calculations       : Yes
Used interface                              : Native Win32 interface for Win NT & 2000
Used output format              : User Defined Encoder
Selected bitrate                : 1024 kBit/s
Quality                         : High
Add ID3 tag                     : No
Command line compressor         : D:\Flac\flac.exe
Additional command line options : -V -8 -T "Date=%year%" -T "Genre=%genre%" %source%
TOC of the extracted CD
     Track |   Start  |  Length  | Start sector | End sector
    ---------------------------------------------------------
        1  |  0:00.00 |  4:00.22 |         0    |    18021
        2  |  4:00.22 |  4:18.46 |     18022    |    37417
        3  |  8:18.68 |  4:20.35 |     37418    |    56952
        4  | 12:39.28 |  3:18.00 |     56953    |    71802
        5  | 15:57.28 |  3:30.34 |     71803    |    87586
        6  | 19:27.62 |  3:52.38 |     87587    |   105024
        7  | 23:20.25 |  4:33.35 |    105025    |   125534
        8  | 27:53.60 |  4:50.54 |    125535    |   147338
        9  | 32:44.39 |  4:10.67 |    147339    |   166155
       10  | 36:55.31 |  6:37.61 |    166156    |   195991
Range status and errors
Selected range
     Filename D:\Rips from Dаrkmind\FrontAngel - Paradox.wav
     Peak level 100.0 %
     Extraction speed 6.8 X
     Range quality 100.0 %
     Test CRC AA463931
     Copy CRC AA463931
     Copy OK
No errors occurred
AccurateRip summary
Track  1  not present in database
Track  2  not present in database
Track  3  not present in database
Track  4  not present in database
Track  5  not present in database
Track  6  not present in database
Track  7  not present in database
Track  8  not present in database
Track  9  not present in database
Track 10  not present in database
None of the tracks are present in the AccurateRip database
End of status report
---- CUETools DB Plugin V2.1.4
[CTDB TOCID: XQWI1YbUuh5I6vrZOeZsnO6gajw-] disk not present in database
Submit result: XQWI1YbUuh5I6vrZOeZsnO6gajw- has been uploaded
==== Log checksum 6E2DA4213212BE52A62AB64F66CAAEEA5E6DCE9272FE9084DEAF0BF6010206BB ====
Код:
-----------------------
DON'T MODIFY THIS FILE
-----------------------
PERFORMER: auCDtect Task Manager, ver. 1.6.0 RC1 build 1.6.0.1
Copyright (c) 2008-2010 y-soft. All rights reserved
[url=http://y-soft.org]http://y-soft.org[/url]
ANALYZER: auCDtect: CD records authenticity detector, version 0.8.2
Copyright (c) 2004 Oleg Berngardt. All rights reserved.
Copyright (c) 2004 Alexander Djourik. All rights reserved.
FILE: FrontAngel - Paradox.flac
  Size: 309333730 Hash: 8C0D656E26A56D782E775E746E28DD09 Accuracy: -m0
  Conclusion: CDDA 100%
  Signature: EA94B9E7E1CF27A266805B13BEF2E0017AEBB8E5
All songs written by Chris Bernhardt & Diana Dohmen.
Lyrics & vocals by Diana Dohmen.
Recorded & mastered at SLC-Production by Chris Bernhardt.

Правила, инструкции, FAQ!!!
Торрент  Добавлен [26 июн 2020, 19:45] Скачать торрент Магнет ссылка
Скачать торрент
[ Размер 19.47 КБ / Просмотров 11 ]

Статус
Проверен 
 
Размер  880.4 МБ
Приватный: Нет (DHT включён)
.torrent скачан  0
 


     Отправить личное сообщение
   
Страница 1 из 1
Показать сообщения за:  Поле сортировки  
Начать новую тему Ответить на тему


Сейчас этот форум просматривают: нет зарегистрированных пользователей и гости: 0


Вы не можете начинать темы
Вы не можете отвечать на сообщения
Вы не можете редактировать свои сообщения
Вы не можете удалять свои сообщения
Вы не можете добавлять вложения

Перейти:  
cron