Начать новую тему Ответить на тему
Статистика раздачи
Размер: 279.52 МБ | Добавлен: 26 июн 2020, 19:48 | Скачали: 0
Сидеров: 0  [0 байт/сек]    Личеров: 0  [0 байт/сек]
Пред. тема | След. тема 

Автор
Сообщение

СообщениеДобавлено: 26 июн 2020, 19:48 

Ответить с цитатой 

VNV Nation - Advance and Follow

Жанр: EBM/Futurepop/Electro
Год выпуска диска: 1995
Производитель диска: Germany/Discordia_DISC 066
Аудио кодек: FLAC
Тип рипа: tracks+.cue
Битрейт аудио: lossless
Продолжительность: 44:58
Трэклист:
01. Anthem (2:06)
02. After Fire (5:40)
03. Frika (6:00)
04. Serial Code (2:45)
05. Serial Killer (6:33)
06. Cold (4:34)
07. Amhrain Comhrac (3:55)
08. Requiem QCN (5:05)
09. Outremer (5:27)
10. Fiume (2:55)
Код:
Exact Audio Copy V0.99 prebeta 4 from 23. January 2008
EAC extraction logfile from 10. November 2008, 20:19
VNV Nation / Advance and Follow
Used drive  : TSSTcorpDVD+-RW TS-H653B   Adapter: 1  ID: 0
Read mode               : Secure
Utilize accurate stream : Yes
Defeat audio cache      : Yes
Make use of C2 pointers : No
Read offset correction                      : 6
Overread into Lead-In and Lead-Out          : No
Fill up missing offset samples with silence : Yes
Delete leading and trailing silent blocks   : No
Null samples used in CRC calculations       : Yes
Used interface                              : Installed external ASPI interface
Gap handling                                : Appended to previous track
Used output format              : User Defined Encoder
Selected bitrate                : 192 kBit/s
Quality                         : High
Add ID3 tag                     : No
Command line compressor         : C:\Program Files\Exact Audio Copy\Flac\flac.exe
Additional command line options : -V -8 -T "artist=%a" -T "title=%t" -T "album=%g" -T "date=%y" -T "tracknumber=%n" -T "genre=%m" %s
TOC of the extracted CD
     Track |   Start  |  Length  | Start sector | End sector
    ---------------------------------------------------------
        1  |  0:00.00 |  2:05.40 |         0    |     9414
        2  |  2:05.40 |  5:39.67 |      9415    |    34906
        3  |  7:45.32 |  5:59.43 |     34907    |    61874
        4  | 13:45.00 |  2:45.20 |     61875    |    74269
        5  | 16:30.20 |  6:32.39 |     74270    |   103708
        6  | 23:02.59 |  4:33.53 |    103709    |   124236
        7  | 27:36.37 |  3:55.13 |    124237    |   141874
        8  | 31:31.50 |  5:05.00 |    141875    |   164749
        9  | 36:36.50 |  5:26.50 |    164750    |   189249
       10  | 42:03.25 |  2:54.52 |    189250    |   202351
Track  1
     Filename F:\A\VNV Nation - Advance and Follow [flac]\01 - Anthem.wav
     Pre-gap length  0:00:02.00
     Peak level 94.4 %
     Track quality 99.9 %
     Test CRC C0EAC0D4
     Copy CRC C0EAC0D4
     Track not present in AccurateRip database
     Copy OK
Track  2
     Filename F:\A\VNV Nation - Advance and Follow [flac]\02 - After Fire.wav
     Pre-gap length  0:00:00.54
     Peak level 94.4 %
     Track quality 100.0 %
     Test CRC 3EFA8159
     Copy CRC 3EFA8159
     Track not present in AccurateRip database
     Copy OK
Track  3
     Filename F:\A\VNV Nation - Advance and Follow [flac]\03 - Frika.wav
     Peak level 94.4 %
     Track quality 100.0 %
     Test CRC DB497EA7
     Copy CRC DB497EA7
     Track not present in AccurateRip database
     Copy OK
Track  4
     Filename F:\A\VNV Nation - Advance and Follow [flac]\04 - Serial Code.wav
     Pre-gap length  0:00:01.21
     Peak level 94.4 %
     Track quality 100.0 %
     Test CRC 81AA23E1
     Copy CRC 81AA23E1
     Track not present in AccurateRip database
     Copy OK
Track  5
     Filename F:\A\VNV Nation - Advance and Follow [flac]\05 - Serial Killer.wav
     Pre-gap length  0:00:01.13
     Peak level 94.4 %
     Track quality 100.0 %
     Test CRC 0FA0B466
     Copy CRC 0FA0B466
     Track not present in AccurateRip database
     Copy OK
Track  6
     Filename F:\A\VNV Nation - Advance and Follow [flac]\06 - Cold.wav
     Pre-gap length  0:00:01.28
     Peak level 94.4 %
     Track quality 100.0 %
     Test CRC 09DFE7BA
     Copy CRC 09DFE7BA
     Track not present in AccurateRip database
     Copy OK
Track  7
     Filename F:\A\VNV Nation - Advance and Follow [flac]\07 - Amhrain Comhrac.wav
     Pre-gap length  0:00:00.65
     Peak level 94.4 %
     Track quality 100.0 %
     Test CRC 6B51EAF6
     Copy CRC 6B51EAF6
     Track not present in AccurateRip database
     Copy OK
Track  8
     Filename F:\A\VNV Nation - Advance and Follow [flac]\08 - Requiem QCN.wav
     Pre-gap length  0:00:01.33
     Peak level 94.4 %
     Track quality 100.0 %
     Test CRC 7BE9833E
     Copy CRC 7BE9833E
     Track not present in AccurateRip database
     Copy OK
Track  9
     Filename F:\A\VNV Nation - Advance and Follow [flac]\09 - Outremer.wav
     Peak level 94.4 %
     Track quality 100.0 %
     Test CRC 0F5ED87A
     Copy CRC 0F5ED87A
     Track not present in AccurateRip database
     Copy OK
Track 10
     Filename F:\A\VNV Nation - Advance and Follow [flac]\10 - Fiume.wav
     Pre-gap length  0:00:00.44
     Peak level 94.4 %
     Track quality 99.9 %
     Test CRC 9DE282F2
     Copy CRC 9DE282F2
     Track not present in AccurateRip database
     Copy OK
None of the tracks are present in the AccurateRip database
No errors occurred
End of status report
Правила, инструкции, FAQ!!!
Торрент  Добавлен [26 июн 2020, 19:48] Скачать торрент Магнет ссылка
Скачать торрент
[ Размер 12.07 КБ / Просмотров 9 ]

Статус
Проверен 
 
Размер  279.52 МБ
Приватный: Нет (DHT включён)
.torrent скачан  0
 


     Отправить личное сообщение
   
Страница 1 из 1
Показать сообщения за:  Поле сортировки  
Начать новую тему Ответить на тему


Сейчас этот форум просматривают: нет зарегистрированных пользователей и гости: 0


Вы не можете начинать темы
Вы не можете отвечать на сообщения
Вы не можете редактировать свои сообщения
Вы не можете удалять свои сообщения
Вы не можете добавлять вложения

Перейти:  
cron