Начать новую тему Ответить на тему
Статистика раздачи
Размер: 371.05 МБ | Добавлен: 26 июн 2020, 20:18 | Скачали: 0
Сидеров: 0  [0 байт/сек]    Личеров: 0  [0 байт/сек]
Пред. тема | След. тема 

Автор
Сообщение

СообщениеДобавлено: 26 июн 2020, 20:18 

Ответить с цитатой 

Rotersand / Waiting To Be Born (EP)
Жанр: EBM, Future-pop
Страна-производитель диска: Germany
Год издания диска: 2010
Издатель (лейбл): Trisol
Номер по каталогу: TRI 405 CD
Страна: Germany
Аудио кодек: FLAC (*.flac)
Тип рипа: image+.cue
Битрейт аудио: lossless
Продолжительность: 51:55
Источник (релизер): Audio CD
Наличие сканов в содержимом раздачи: да
Треклист:
01 Waiting To Be Born (Rework)
02 A Number And A Name (Stripped Down)
03 First Time (SITD Remix)
04 A Strange Kind Of Love
05 All These Moments
06 Wasted Wings
07 Waiting To Be Born (Full Version)
08 War On Error (iVardensphere Remix)
09 If You Don’t Stop It (Hazardous Dub)
Код:
Exact Audio Copy V0.99 prebeta 5 from 4. May 2009
Отчёт EAC об извлечении, выполненном 21. марта 2011, 19:36
Rotersand / Waiting To Be Born EP
Дисковод: _NEC    DVD_RW ND-4550A   Adapter: 0  ID: 2
Режим чтения                 : Достоверность
Использование точного потока : Да
Отключение кэша аудио        : Да
Использование указателей C2  : Нет
Коррекция смещения при чтении                     : 48
Способность читать области Lead-in и Lead-out     : Нет
Заполнение пропущенных сэмплов тишиной            : Да
Удаление блоков с тишиной в начале и конце        : Нет
При вычислениях CRC использовались нулевые сэмплы : Да
Интерфейс                                         : Встроенный Win32-интерфейс для Win NT/2000
Выходной формат : Внутренние WAV-операции
Формат сэмплов  : 44.100 Гц; 16 бит; стерео
TOC извлечённого CD
     Трек |   Старт  | Длительность | Начальный сектор | Конечный сектор
    ---------------------------------------------------------------------
       1  |  0:00.00 |    6:41.31   |           0      |      30105
       2  |  6:41.31 |    4:42.26   |       30106      |      51281
       3  | 11:23.57 |    5:49.38   |       51282      |      77494
       4  | 17:13.20 |    5:45.14   |       77495      |     103383
       5  | 22:58.34 |    6:35.29   |      103384      |     133037
       6  | 29:33.63 |    3:59.36   |      133038      |     150998
       7  | 33:33.24 |    9:05.09   |      150999      |     191882
       8  | 42:38.33 |    4:50.50   |      191883      |     213682
       9  | 47:29.08 |    4:25.41   |      213683      |     233598
Характеристики диапазона извлечения и сообщения об ошибках
Выбранный диапазон
     Имя файла D:\Music\Rotersand - Waiting To Be Born [EP]\Rotersand - Waiting To Be Born EP.wav
     Пиковый уровень 96.6 %
     Качество диапазона 99.9 %
     CRC теста 16C2B75F
     CRC копии 16C2B75F
     Копирование... OK
Ошибок не произошло
AccurateRip: сводка
Трек  1  точное извлечение (доверие 2)  [DA4B8BEA]
Трек  2  точное извлечение (доверие 2)  [62BA6B05]
Трек  3  точное извлечение (доверие 2)  [6935A5F3]
Трек  4  точное извлечение (доверие 2)  [9EA9132D]
Трек  5  точное извлечение (доверие 2)  [38D92F57]
Трек  6  точное извлечение (доверие 2)  [8EE44221]
Трек  7  точное извлечение (доверие 2)  [8E54B6C6]
Трек  8  точное извлечение (доверие 2)  [0A0CD0E9]
Трек  9  точное извлечение (доверие 2)  [79EC862C]
Все треки извлечены точно
Конец отчёта
Код:
REM GENRE Industrial
REM DATE 2010
REM DISCID 6A0C2A09
REM COMMENT "ExactAudioCopy v0.99pb5"
PERFORMER "Rotersand"
TITLE "Waiting To Be Born EP"
FILE "Rotersand - Waiting To Be Born EP.wav" WAVE
  TRACK 01 AUDIO
    TITLE "Waiting To Be Born (Rework)"
    PERFORMER "Rotersand"
    INDEX 01 00:00:00
  TRACK 02 AUDIO
    TITLE "A Number And A Name (Stripped Down)"
    PERFORMER "Rotersand"
    INDEX 01 06:41:31
  TRACK 03 AUDIO
    TITLE "First Time ([SITD] Remix)"
    PERFORMER "Rotersand"
    INDEX 00 11:23:12
    INDEX 01 11:23:57
  TRACK 04 AUDIO
    TITLE "A Strange Kind Of Love"
    PERFORMER "Rotersand"
    INDEX 00 17:12:37
    INDEX 01 17:13:20
  TRACK 05 AUDIO
    TITLE "All These Moments"
    PERFORMER "Rotersand"
    INDEX 00 22:57:74
    INDEX 01 22:58:34
  TRACK 06 AUDIO
    TITLE "Wasted Wings"
    PERFORMER "Rotersand"
    INDEX 00 29:33:06
    INDEX 01 29:33:63
  TRACK 07 AUDIO
    TITLE "Waiting To Be Born (Full Version)"
    PERFORMER "Rotersand"
    INDEX 00 33:32:16
    INDEX 01 33:33:24
  TRACK 08 AUDIO
    TITLE "War On Error (Ivardensphere Remix)"
    PERFORMER "Rotersand"
    INDEX 00 42:37:66
    INDEX 01 42:38:33
  TRACK 09 AUDIO
    TITLE "If You Don't Stop It (Hazardous Dub)"
    PERFORMER "Rotersand"
    INDEX 00 47:28:24
    INDEX 01 47:29:08
Код:
Started at: понедельник, 21. 03. 2011. - 19:37.41
1 file found
1 -===- D:\Music\Rotersand - Waiting To Be Born [EP]\Rotersand - Waiting To Be Born EP.wav
  Conclusion: this track is CDDA with probability 100%
Finished at: понедельник, 21. 03. 2011. - 19:43.26 (operation time: 0:05.45)
Правила, инструкции, FAQ!!!
Торрент  Добавлен [26 июн 2020, 20:18] Скачать торрент Магнет ссылка
Скачать торрент
[ Размер 15.28 КБ / Просмотров 11 ]

Статус
Проверен 
 
Размер  371.05 МБ
Приватный: Нет (DHT включён)
.torrent скачан  0
 


     Отправить личное сообщение
   
Страница 1 из 1
Показать сообщения за:  Поле сортировки  
Начать новую тему Ответить на тему


Сейчас этот форум просматривают: нет зарегистрированных пользователей и гости: 0


Вы не можете начинать темы
Вы не можете отвечать на сообщения
Вы не можете редактировать свои сообщения
Вы не можете удалять свои сообщения
Вы не можете добавлять вложения

Перейти:  
cron