Начать новую тему Ответить на тему
Статистика раздачи
Размер: 288.84 МБ | Добавлен: 26 июн 2020, 20:36 | Скачали: 0
Сидеров: 0  [0 байт/сек]    Личеров: 0  [0 байт/сек]
Пред. тема | След. тема 

Автор
Сообщение

СообщениеДобавлено: 26 июн 2020, 20:36 

Ответить с цитатой 

Imperative Reaction - Ruined
Жанр: EBM / future pop
Год выпуска диска: 2002
Производитель диска: (Metropolis Records, USA)
Аудио кодек: FLAC
Тип рипа: image+.cue
Битрейт аудио: lossless
Продолжительность: 0:40:39.60
Трэклист:
1. Severed [05:04.21]
2. Fault [03:32.33]
3. Beneath My Silence [02:57.58]
4. Diminish Me [03:53.22]
5. Disoriented [05:18.13]
6. Ruined [04:23.34]
7. Parallel [03:17.05]
8. Rift [05:00.69]
9. Never Tomorrow [04:53.36]
10. Paradox [02:18.69]
Код:
Exact Audio Copy V0.99 prebeta 4 from 23. January 2008
Отчёт EAC об извлечении, выполненном 3. ноября 2008, 20:47
Imperative Reaction / Ruined
Дисковод: Optiarc DVD RW AD-7173A   Adapter: 0  ID: 0
Режим чтения                 : Достоверность
Использование точного потока : Да
Отключение кэша аудио        : Да
Использование указателей C2  : Нет
Коррекция смещения при чтении                     : 48
Способность читать области Lead-in и Lead-out     : Нет
Заполнение пропущенных сэмплов тишиной            : Да
Удаление блоков с тишиной в начале и конце        : Нет
При вычислениях CRC использовались нулевые сэмплы : Да
Интерфейс                                         : Встроенный Win32-интерфейс для Win NT/2000
Выходной формат          : Пользовательский кодировщик
Выбранный битрейт        : 1024 kBit/s
Качество                 : Высокий
Добавление ID3-тэга      : Нет
Утилита сжатия           : C:\Program Files\Exact Audio Copy\Flac\flac.exe
Дополнительные параметры : -6 -V -T "ARTIST=%a" -T "TITLE=%t" -T "ALBUM=%g" -T "DATE=%y" -T "TRACKNUMBER=%n" -T "GENRE=%m" -T "COMMENT=%e" %s -o %d
TOC извлечённого CD
     Трек |   Старт  | Длительность | Начальный сектор | Конечный сектор
    ---------------------------------------------------------------------
       1  |  0:00.00 |    5:04.21   |           0      |      22820
       2  |  5:04.21 |    3:32.33   |       22821      |      38753
       3  |  8:36.54 |    2:57.58   |       38754      |      52086
       4  | 11:34.37 |    3:53.22   |       52087      |      69583
       5  | 15:27.59 |    5:18.13   |       69584      |      93446
       6  | 20:45.72 |    4:23.34   |       93447      |     113205
       7  | 25:09.31 |    3:17.05   |      113206      |     127985
       8  | 28:26.36 |    5:00.69   |      127986      |     150554
       9  | 33:27.30 |    4:53.36   |      150555      |     172565
      10  | 38:20.66 |    2:18.69   |      172566      |     182984
Характеристики диапазона извлечения и сообщения об ошибках
Выбранный диапазон
     Имя файла G:\СКАЧКА\FLAC\Imperative Reaction - Ruined.wav
     Пиковый уровень 97.7 %
     Качество диапазона 100.0 %
     CRC теста 0F5D5FF2
     CRC копии 0F5D5FF2
     Копирование... OK
Ошибок не произошло
Конец отчёта
Правила, инструкции, FAQ!!!
Торрент  Добавлен [26 июн 2020, 20:36] Скачать торрент Магнет ссылка
Скачать торрент
[ Размер 11.96 КБ / Просмотров 11 ]

Статус
Проверен 
 
Размер  288.84 МБ
Приватный: Нет (DHT включён)
.torrent скачан  0
 


     Отправить личное сообщение
   
Страница 1 из 1
Показать сообщения за:  Поле сортировки  
Начать новую тему Ответить на тему


Сейчас этот форум просматривают: нет зарегистрированных пользователей и гости: 0


Вы не можете начинать темы
Вы не можете отвечать на сообщения
Вы не можете редактировать свои сообщения
Вы не можете удалять свои сообщения
Вы не можете добавлять вложения

Перейти:  
cron