Начать новую тему Ответить на тему
Статистика раздачи
Размер: 404.15 МБ | Добавлен: 26 июн 2020, 20:35 | Скачали: 0
Сидеров: 0  [0 байт/сек]    Личеров: 0  [0 байт/сек]
Пред. тема | След. тема 

Автор
Сообщение

СообщениеДобавлено: 26 июн 2020, 20:35 

Ответить с цитатой 

Imperative Reaction / Imperative Reaction
Жанр: EBM / future pop
Страна-производитель диска: Germany
Год издания диска: 2011
Издатель (лейбл): Mindbase
Номер по каталогу: mind 187
Аудиокодек: FLAC (*.flac)
Тип рипа: image+.cue
Битрейт аудио: lossless
Продолжительность: 48:01.49
Источник (релизер): Физический носитель
Наличие сканов в содержимом раздачи: да
Треклист:
01. Side Effect [4:36]
02. What Is Left To Say [4:46]
03. Siphon [4:43]
04. Song Of The Martyr [4:03]
05. Torture [5:01]
06. Surface [3:54]
07. Time Doesn't Care [3:44]
08. The Signal [4:34]
09. Hype [4:44]
10. Permanent [3:31]
11. Closure [4:26]
Код:
Exact Audio Copy V1.0 beta 1 from 15. November 2010
Отчёт EAC об извлечении, выполненном 28. ноября 2011, 15:19
Imperative Reaction / Imperative Reaction
Дисковод: _NEC    DVD_RW ND-3520A   Adapter: 0  ID: 1
Режим чтения                 : Достоверность
Использование точного потока : Да
Отключение кэша аудио        : Да
Использование указателей C2  : Нет
Коррекция смещения при чтении                     : 48
Способность читать области Lead-in и Lead-out     : Нет
Заполнение пропущенных сэмплов тишиной            : Да
Удаление блоков с тишиной в начале и конце        : Нет
При вычислениях CRC использовались нулевые сэмплы : Да
Интерфейс                                         : Установленный внешний ASPI-интерфейс
Выходной формат          : Пользовательский кодировщик
Выбранный битрейт        : 1024 kBit/s
Качество                 : Высокий
Добавление ID3-тэга      : Нет
Утилита сжатия           : D:\Program Files\Exact Audio Copy\FLAC\FLAC.EXE
Дополнительные параметры : -6 -V -T "ARTIST=%a" -T "TITLE=%t" -T "ALBUM=%g" -T "DATE=%y" -T "TRACKNUMBER=%n" -T "GENRE=%m" -T "COMMENT=%e" %j--picture="%i"%j %s -o %d
TOC извлечённого CD
     Трек |   Старт  | Длительность | Начальный сектор | Конечный сектор
    ---------------------------------------------------------------------
       1  |  0:00.00 |    4:35.53   |           0      |      20677
       2  |  4:35.53 |    4:45.47   |       20678      |      42099
       3  |  9:21.25 |    4:43.32   |       42100      |      63356
       4  | 14:04.57 |    4:03.30   |       63357      |      81611
       5  | 18:08.12 |    5:00.65   |       81612      |     104176
       6  | 23:09.02 |    3:53.62   |      104177      |     121713
       7  | 27:02.64 |    3:43.55   |      121714      |     138493
       8  | 30:46.44 |    4:34.04   |      138494      |     159047
       9  | 35:20.48 |    4:44.11   |      159048      |     180358
      10  | 40:04.59 |    3:30.40   |      180359      |     196148
      11  | 43:35.24 |    4:26.25   |      196149      |     216123
Характеристики диапазона извлечения и сообщения об ошибках
Выбранный диапазон
     Имя файла O:\На трекер\Imperative Reaction - Imperative Reaction.wav
     Пиковый уровень 97.7 %
0.4 X
     Качество диапазона 99.9 %
     CRC теста 86D608DF
     CRC копии 86D608DF
     Копирование... OK
Ошибок не произошло
AccurateRip: сводка
Трек  1  точное извлечение (доверие 1)  [08B3CEF8]
Трек  2  точное извлечение (доверие 1)  [C5996830]
Трек  3  точное извлечение (доверие 1)  [C36A418A]
Трек  4  точное извлечение (доверие 1)  [1BE3EDB6]
Трек  5  точное извлечение (доверие 1)  [56122982]
Трек  6  точное извлечение (доверие 1)  [B6234402]
Трек  7  точное извлечение (доверие 1)  [B9562F23]
Трек  8  точное извлечение (доверие 1)  [97016A9C]
Трек  9  точное извлечение (доверие 1)  [DB15B6D4]
Трек 10  точное извлечение (доверие 1)  [A1DDE19B]
Трек 11  точное извлечение (доверие 1)  [2C6918CA]
Все треки извлечены точно
Конец отчёта
====  EF47A840FAFF3D4145A6940A28486480D1347C9BDEAE3B7F25A0ADEF058BC191 ====
Правила, инструкции, FAQ!!!
Торрент  Добавлен [26 июн 2020, 20:35] Скачать торрент Магнет ссылка
Скачать торрент
[ Размер 16.93 КБ / Просмотров 7 ]

Статус
Проверен 
 
Размер  404.15 МБ
Приватный: Нет (DHT включён)
.torrent скачан  0
 


     Отправить личное сообщение
   
Страница 1 из 1
Показать сообщения за:  Поле сортировки  
Начать новую тему Ответить на тему


Сейчас этот форум просматривают: нет зарегистрированных пользователей и гости: 0


Вы не можете начинать темы
Вы не можете отвечать на сообщения
Вы не можете редактировать свои сообщения
Вы не можете удалять свои сообщения
Вы не можете добавлять вложения

Перейти:  
cron