Начать новую тему Ответить на тему
Статистика раздачи
Размер: 417.37 МБ | Добавлен: 26 июн 2020, 16:55 | Скачали: 0
Сидеров: 0  [0 байт/сек]    Личеров: 0  [0 байт/сек]
Пред. тема | След. тема 

Автор
Сообщение

СообщениеДобавлено: 26 июн 2020, 16:55 

Ответить с цитатой 

Heliosphere / Hands On Nation
Жанр: EBM, Future-pop
Страна-производитель диска: US
Год издания диска: 2007
Издатель (лейбл): Sector 9 Studios
Номер по каталогу: S9S007
Страна: US
Аудио кодек: FLAC (*.flac)
Тип рипа: image+.cue
Битрейт аудио: lossless
Продолжительность: 1:01:13
Источник (релизер): Audio CD
Наличие сканов в содержимом раздачи: нет
Треклист:
01 Jeremiad
02 Secrets In Motion
03 'Til Then
04 The Memories
05 Our Kind
06 45th Street Beatdown
07 Taken
08 That Is The Rule
09 Move the Gun
10 The Point
11 In The End It's Rain
12 Surrender
Код:
Exact Audio Copy V0.99 prebeta 5 from 4. May 2009
Отчёт EAC об извлечении, выполненном 9. февраля 2011, 21:54
Heliosphere / Hands on Nation
Дисковод: _NEC    DVD_RW ND-4550A   Adapter: 0  ID: 2
Режим чтения                 : Достоверность
Использование точного потока : Да
Отключение кэша аудио        : Да
Использование указателей C2  : Нет
Коррекция смещения при чтении                     : 48
Способность читать области Lead-in и Lead-out     : Нет
Заполнение пропущенных сэмплов тишиной            : Да
Удаление блоков с тишиной в начале и конце        : Нет
При вычислениях CRC использовались нулевые сэмплы : Да
Интерфейс                                         : Встроенный Win32-интерфейс для Win NT/2000
Выходной формат : Внутренние WAV-операции
Формат сэмплов  : 44.100 Гц; 16 бит; стерео
TOC извлечённого CD
     Трек |   Старт  | Длительность | Начальный сектор | Конечный сектор
    ---------------------------------------------------------------------
       1  |  0:00.00 |    5:31.42   |           0      |      24866
       2  |  5:31.42 |    6:29.51   |       24867      |      54092
       3  | 12:01.18 |    5:58.35   |       54093      |      80977
       4  | 17:59.53 |    3:54.24   |       80978      |      98551
       5  | 21:54.02 |    4:39.52   |       98552      |     119528
       6  | 26:33.54 |    5:06.65   |      119529      |     142543
       7  | 31:40.44 |    5:57.20   |      142544      |     169338
       8  | 37:37.64 |    4:29.03   |      169339      |     189516
       9  | 42:06.67 |    4:20.43   |      189517      |     209059
      10  | 46:27.35 |    4:32.08   |      209060      |     229467
      11  | 50:59.43 |    4:04.00   |      229468      |     247767
      12  | 55:03.43 |    6:10.21   |      247768      |     275538
Характеристики диапазона извлечения и сообщения об ошибках
Выбранный диапазон
     Имя файла D:\Music\Heliosphere - Hands on Nation (2007)\Heliosphere - Hands on Nation.wav
     Пиковый уровень 99.9 %
     Качество диапазона 100.0 %
     CRC теста C5199007
     CRC копии C5199007
     Копирование... OK
Ошибок не произошло
AccurateRip: сводка
Трек  1  нет в базе данных
Трек  2  нет в базе данных
Трек  3  нет в базе данных
Трек  4  нет в базе данных
Трек  5  нет в базе данных
Трек  6  нет в базе данных
Трек  7  нет в базе данных
Трек  8  нет в базе данных
Трек  9  нет в базе данных
Трек 10  нет в базе данных
Трек 11  нет в базе данных
Трек 12  нет в базе данных
Ни одного трека нет в базе AccurateRip
Конец отчёта
Код:
REM GENRE EBM
REM DATE 2007
REM DISCID 9E0E590C
REM COMMENT "ExactAudioCopy v0.99pb5"
PERFORMER "Heliosphere"
TITLE "Hands on Nation"
FILE "Heliosphere - Hands on Nation.wav" WAVE
  TRACK 01 AUDIO
    TITLE "Jeremiad"
    PERFORMER "Heliosphere"
    INDEX 01 00:00:00
  TRACK 02 AUDIO
    TITLE "Secrets in Motion"
    PERFORMER "Heliosphere"
    INDEX 01 05:31:42
  TRACK 03 AUDIO
    TITLE "'til Then"
    PERFORMER "Heliosphere"
    INDEX 01 12:01:18
  TRACK 04 AUDIO
    TITLE "The Memories"
    PERFORMER "Heliosphere"
    INDEX 01 17:59:53
  TRACK 05 AUDIO
    TITLE "Our Kind"
    PERFORMER "Heliosphere"
    INDEX 01 21:54:02
  TRACK 06 AUDIO
    TITLE "45th Street Breakdown"
    PERFORMER "Heliosphere"
    INDEX 01 26:33:54
  TRACK 07 AUDIO
    TITLE "Taken"
    PERFORMER "Heliosphere"
    INDEX 01 31:40:44
  TRACK 08 AUDIO
    TITLE "That is the Rule"
    PERFORMER "Heliosphere"
    INDEX 01 37:37:64
  TRACK 09 AUDIO
    TITLE "Move the Gun"
    PERFORMER "Heliosphere"
    INDEX 01 42:06:67
  TRACK 10 AUDIO
    TITLE "The Point"
    PERFORMER "Heliosphere"
    INDEX 01 46:27:35
  TRACK 11 AUDIO
    TITLE "In the End it's Rain"
    PERFORMER "Heliosphere"
    INDEX 01 50:59:43
  TRACK 12 AUDIO
    TITLE "Surrender"
    PERFORMER "Heliosphere"
    INDEX 01 55:03:43
Код:
Started at: среда, 09. 02. 2011. - 21:55.02
1 file found
1 -===- D:\Music\Heliosphere - Hands on Nation (2007)\Heliosphere - Hands on Nation.wav
  Conclusion: this track is CDDA with probability 100%
Finished at: среда, 09. 02. 2011. - 22:02.38 (operation time: 0:07.36)
Правила, инструкции, FAQ!!!
Торрент  Добавлен [26 июн 2020, 16:55] Скачать торрент Магнет ссылка
Скачать торрент
[ Размер 16.97 КБ / Просмотров 4 ]

Статус
Проверен 
 
Размер  417.37 МБ
Приватный: Нет (DHT включён)
.torrent скачан  0
 


     Отправить личное сообщение
   
Страница 1 из 1
Показать сообщения за:  Поле сортировки  
Начать новую тему Ответить на тему


Сейчас этот форум просматривают: нет зарегистрированных пользователей и гости: 0


Вы не можете начинать темы
Вы не можете отвечать на сообщения
Вы не можете редактировать свои сообщения
Вы не можете удалять свои сообщения
Вы не можете добавлять вложения

Перейти:  
cron