Начать новую тему Ответить на тему
Статистика раздачи
Размер: 401.06 МБ | Добавлен: 26 июн 2020, 17:54 | Скачали: 0
Сидеров: 1  [0 байт/сек]    Личеров: 0  [0 байт/сек]
Пред. тема | След. тема 

Автор
Сообщение

СообщениеДобавлено: 26 июн 2020, 17:54 

Ответить с цитатой 

genCAB - II transMuter
Жанр: EBM future pop
Год выпуска диска: 2008
Издатель (лейбл): (Hive Records, USA)
Номер по каталогу: HIV.30
Аудио кодек: FLAC
Тип рипа: image+.cue
Битрейт аудио: lossless
Продолжительность: 52:02.10
Источник: Физический носитель
Наличие сканов в содержимом раздачи: да
Трэклист:
01. Left Eyed Gemini [1:41]
02. Perish the Thought [5:08]
03. Let It Be [5:25]
04. Self Images [5:31]
05. Siren Song [3:22]
06. Frozenpause [4:28]
07. Version2 [3:56]
08. II transMuter [5:11]
09. Of Love and Death [5:49]
10. High Tech Low Life [3:46]
11. Expired Inside [4:32]
12. Right Eyed Gemini [3:13]
Код:
Exact Audio Copy V0.99 prebeta 5 from 4. May 2009
Отчёт EAC об извлечении, выполненном 20. декабря 2010, 10:14
genCAB / II transMuter
Дисковод: Optiarc DVD RW AD-7173A   Adapter: 0  ID: 0
Режим чтения                 : Достоверность
Использование точного потока : Да
Отключение кэша аудио        : Да
Использование указателей C2  : Нет
Коррекция смещения при чтении                     : 48
Способность читать области Lead-in и Lead-out     : Нет
Заполнение пропущенных сэмплов тишиной            : Да
Удаление блоков с тишиной в начале и конце        : Нет
При вычислениях CRC использовались нулевые сэмплы : Да
Интерфейс                                         : Установленный внешний ASPI-интерфейс
Выходной формат          : Пользовательский кодировщик
Выбранный битрейт        : 1024 kBit/s
Качество                 : Высокий
Добавление ID3-тэга      : Нет
Утилита сжатия           : C:\Program Files\Exact Audio Copy\flac.exe
Дополнительные параметры : -6 -V -T "ARTIST=%a" -T "TITLE=%t" -T "ALBUM=%g" -T "DATE=%y" -T "TRACKNUMBER=%n" -T "GENRE=%m" -T "COMMENT=%e" %s -o %d
TOC извлечённого CD
     Трек |   Старт  | Длительность | Начальный сектор | Конечный сектор
    ---------------------------------------------------------------------
       1  |  0:00.00 |    1:41.24   |           0      |       7598
       2  |  1:41.24 |    5:08.12   |        7599      |      30710
       3  |  6:49.36 |    5:25.37   |       30711      |      55122
       4  | 12:14.73 |    5:31.30   |       55123      |      79977
       5  | 17:46.28 |    3:21.39   |       79978      |      95091
       6  | 21:07.67 |    4:27.47   |       95092      |     115163
       7  | 25:35.39 |    3:56.08   |      115164      |     132871
       8  | 29:31.47 |    5:11.04   |      132872      |     156200
       9  | 34:42.51 |    5:48.62   |      156201      |     182362
      10  | 40:31.38 |    3:45.67   |      182363      |     199304
      11  | 44:17.30 |    4:32.03   |      199305      |     219707
      12  | 48:49.33 |    3:12.52   |      219708      |     234159
Характеристики диапазона извлечения и сообщения об ошибках
Выбранный диапазон
     Имя файла H:\СКАЧКА\FLAC\1 TORRENT\genCAB - II transMuter.wav
     Пиковый уровень 100.0 %
     Качество диапазона 99.9 %
     CRC теста 6CDD1A3B
     CRC копии 6CDD1A3B
     Копирование... OK
Ошибок не произошло
AccurateRip: сводка
Трек  1  точное извлечение (доверие 3)  [569968CE]
Трек  2  точное извлечение (доверие 3)  [BC90B7E5]
Трек  3  точное извлечение (доверие 3)  [742601CC]
Трек  4  точное извлечение (доверие 3)  [8E2C7411]
Трек  5  точное извлечение (доверие 3)  [A6162976]
Трек  6  точное извлечение (доверие 3)  [081A0E29]
Трек  7  точное извлечение (доверие 3)  [A433DAD8]
Трек  8  точное извлечение (доверие 3)  [3E3B3B92]
Трек  9  точное извлечение (доверие 3)  [F86342FE]
Трек 10  точное извлечение (доверие 3)  [8997B875]
Трек 11  точное извлечение (доверие 3)  [DF9E6312]
Трек 12  точное извлечение (доверие 3)  [86749A77]
Все треки извлечены точно
Конец отчёта
Правила, инструкции, FAQ!!!
Торрент  Добавлен [26 июн 2020, 17:54] Скачать торрент Магнет ссылка
Скачать торрент
[ Размер 16.58 КБ / Просмотров 14 ]

Статус
Проверен 
 
Размер  401.06 МБ
Приватный: Нет (DHT включён)
.torrent скачан  0
 


     Отправить личное сообщение
   
Страница 1 из 1
Показать сообщения за:  Поле сортировки  
Начать новую тему Ответить на тему


Сейчас этот форум просматривают: нет зарегистрированных пользователей и гости: 0


Вы не можете начинать темы
Вы не можете отвечать на сообщения
Вы не можете редактировать свои сообщения
Вы не можете удалять свои сообщения
Вы не можете добавлять вложения

Перейти:  
cron