Начать новую тему Ответить на тему
Статистика раздачи
Размер: 485.59 МБ | Добавлен: 26 июн 2020, 19:47 | Скачали: 0
Сидеров: 1  [0 байт/сек]    Личеров: 0  [0 байт/сек]
Пред. тема | След. тема 

Автор
Сообщение

СообщениеДобавлено: 26 июн 2020, 19:47 

Ответить с цитатой 

Gecko Sector / Enter
Жанр: EBM,Future-Pop
Страна-производитель диска: Germany
Год издания: 2012
Издатель (лейбл): Out Of Line
Номер по каталогу: OUT 546
Страна: Germany
Аудиокодек: FLAC (*.flac)
Тип рипа: image+.cue
Битрейт аудио: lossless
Источник (релизер): Audio CD
Наличие сканов в содержимом раздачи: Да
Треклист:
01. Alien Invasion
02. Stroboscope
03. X-Files of My Life
04. Recall
05. Second Face
06. TV Conspiracy
07. Soul Bleeding
08. Mindless Love
09. A Million Hours
10. Bulletproof
11. Concrete
12. Phantom Pain
Код:
Exact Audio Copy V1.0 beta 3 from 29. August 2011
Отчёт EAC об извлечении, выполненном 8. июля 2012, 17:59
Gecko Sector / Enter
Дисковод: _NEC    DVD_RW ND-4570A   Adapter: 1  ID: 0
Режим чтения                 : Достоверность
Использование точного потока : Да
Отключение кэша аудио        : Да
Использование указателей C2  : Нет
Коррекция смещения при чтении                     : 48
Способность читать области Lead-in и Lead-out     : Нет
Заполнение пропущенных сэмплов тишиной            : Да
Удаление блоков с тишиной в начале и конце        : Нет
При вычислениях CRC использовались нулевые сэмплы : Да
Интерфейс                                         : Встроенный Win32-интерфейс для Win NT/2000
Выходной формат : Внутренние WAV-операции
Формат сэмплов  : 44.100 Гц; 16 бит; стерео
TOC извлечённого CD
     Трек |   Старт  | Длительность | Начальный сектор | Конечный сектор
    ---------------------------------------------------------------------
       1  |  0:00.00 |    5:17.21   |           0      |      23795
       2  |  5:17.21 |    5:31.68   |       23796      |      48688
       3  | 10:49.14 |    4:09.51   |       48689      |      67414
       4  | 14:58.65 |    4:34.61   |       67415      |      88025
       5  | 19:33.51 |    5:13.21   |       88026      |     111521
       6  | 24:46.72 |    5:09.24   |      111522      |     134720
       7  | 29:56.21 |    4:58.16   |      134721      |     157086
       8  | 34:54.37 |    4:28.70   |      157087      |     177256
       9  | 39:23.32 |    4:59.39   |      177257      |     199720
      10  | 44:22.71 |    4:16.01   |      199721      |     218921
      11  | 48:38.72 |    4:36.72   |      218922      |     239693
      12  | 53:15.69 |    4:32.62   |      239694      |     260155
Характеристики диапазона извлечения и сообщения об ошибках
Выбранный диапазон
     Имя файла H:\!!!\GECKO SECTOR- ENTER\Gecko Sector - Enter.wav
     Пиковый уровень 100.0 %
     Скорость извлечения 6.1 X
     Качество диапазона 99.9 %
     CRC теста AA7F9DF8
     CRC копии AA7F9DF8
     Копирование... OK
Ошибок не произошло
AccurateRip: сводка
Трек  1  отсутствует в базе данных
Трек  2  отсутствует в базе данных
Трек  3  отсутствует в базе данных
Трек  4  отсутствует в базе данных
Трек  5  отсутствует в базе данных
Трек  6  отсутствует в базе данных
Трек  7  отсутствует в базе данных
Трек  8  отсутствует в базе данных
Трек  9  отсутствует в базе данных
Трек 10  отсутствует в базе данных
Трек 11  отсутствует в базе данных
Трек 12  отсутствует в базе данных
Ни одного трека нет в базе AccurateRip
Конец отчёта
Код:
REM GENRE Electronic
REM DATE 2012
REM DISCID B40D8C0C
REM COMMENT "ExactAudioCopy v1.0b3"
PERFORMER "Gecko Sector"
TITLE "Enter"
FILE "Gecko Sector - Enter.wav" WAVE
  TRACK 01 AUDIO
    TITLE "Alien Invasion"
    PERFORMER "Gecko Sector"
    FLAGS DCP
    INDEX 01 00:00:00
  TRACK 02 AUDIO
    TITLE "Stroboscope"
    PERFORMER "Gecko Sector"
    FLAGS DCP
    INDEX 00 05:15:21
    INDEX 01 05:17:21
  TRACK 03 AUDIO
    TITLE "X-Files of my Life"
    PERFORMER "Gecko Sector"
    FLAGS DCP
    INDEX 00 10:47:14
    INDEX 01 10:49:14
  TRACK 04 AUDIO
    TITLE "Recall"
    PERFORMER "Gecko Sector"
    FLAGS DCP
    INDEX 00 14:56:65
    INDEX 01 14:58:65
  TRACK 05 AUDIO
    TITLE "Second Face"
    PERFORMER "Gecko Sector"
    FLAGS DCP
    INDEX 00 19:31:51
    INDEX 01 19:33:51
  TRACK 06 AUDIO
    TITLE "TV Conspiracy"
    PERFORMER "Gecko Sector"
    FLAGS DCP
    INDEX 00 24:44:72
    INDEX 01 24:46:72
  TRACK 07 AUDIO
    TITLE "Soul Bleeding"
    PERFORMER "Gecko Sector"
    FLAGS DCP
    INDEX 00 29:54:21
    INDEX 01 29:56:21
  TRACK 08 AUDIO
    TITLE "Mindless Love"
    PERFORMER "Gecko Sector"
    FLAGS DCP
    INDEX 00 34:52:37
    INDEX 01 34:54:37
  TRACK 09 AUDIO
    TITLE "A Million Hours"
    PERFORMER "Gecko Sector"
    FLAGS DCP
    INDEX 00 39:21:32
    INDEX 01 39:23:32
  TRACK 10 AUDIO
    TITLE "Bullet Proof"
    PERFORMER "Gecko Sector"
    FLAGS DCP
    INDEX 00 44:20:71
    INDEX 01 44:22:71
  TRACK 11 AUDIO
    TITLE "Concrete"
    PERFORMER "Gecko Sector"
    FLAGS DCP
    INDEX 00 48:36:72
    INDEX 01 48:38:72
  TRACK 12 AUDIO
    TITLE "Phantom Pain"
    PERFORMER "Gecko Sector"
    FLAGS DCP
    INDEX 00 53:13:69
    INDEX 01 53:15:69
Код:
-----------------------
DON'T MODIFY THIS FILE
-----------------------
PERFORMER: auCDtect Task Manager, ver. 1.5.1RC3 build 1.5.1.4
Copyright (c) 2008-2010 y-soft. All rights reserved
[url=http://y-soft.org]http://y-soft.org[/url]
ANALYZER: auCDtect: CD records authenticity detector, version 0.8.2
Copyright (c) 2004 Oleg Berngardt. All rights reserved.
Copyright (c) 2004 Alexander Djourik. All rights reserved.
FILE: Gecko Sector - Enter.wav
  Size: 611886956 Hash: A177BDC740BBC4592EA1E14FB9370EFB Accuracy: -m0
  Conclusion: CDDA 100%
  Signature: 0E778B2113C0875A0B7B61A3D96CF5565673DDFD
Сайд-проект Funker Vogt.
Правила, инструкции, FAQ!!!
Торрент  Добавлен [26 июн 2020, 19:47] Скачать торрент Магнет ссылка
Скачать торрент
[ Размер 20.09 КБ / Просмотров 5 ]

Статус
Проверен 
 
Размер  485.59 МБ
Приватный: Нет (DHT включён)
.torrent скачан  0
 


     Отправить личное сообщение
   
Страница 1 из 1
Показать сообщения за:  Поле сортировки  
Начать новую тему Ответить на тему


Сейчас этот форум просматривают: нет зарегистрированных пользователей и гости: 0


Вы не можете начинать темы
Вы не можете отвечать на сообщения
Вы не можете редактировать свои сообщения
Вы не можете удалять свои сообщения
Вы не можете добавлять вложения

Перейти:  
cron