Начать новую тему Ответить на тему
Статистика раздачи
Размер: 409.02 МБ | Добавлен: 26 июн 2020, 17:42 | Скачали: 0
Сидеров: 1  [0 байт/сек]    Личеров: 0  [0 байт/сек]
Пред. тема | След. тема 

Автор
Сообщение

СообщениеДобавлено: 26 июн 2020, 17:42 

Ответить с цитатой 

Faderhead / The World Of Faderhead
#777Жанр: EBM / future pop
Страна-производитель диска: Germany
Год издания: 2012
Издатель (лейбл): Ltracks Recordings
Номер по каталогу: LT 008
Аудиокодек: FLAC (*.flac)
Тип рипа: image+.cue
Битрейт аудио: lossless
Продолжительность: 56:08.68
Источник (релизер): Физический носитель
Наличие сканов в содержимом раздачи: да
Треклист:
01. Fistful Of Fuck You [3:25]
02. Older Now [3:05]
03. Join Us [4:14]
04. Inside Of Me [5:37]
05. Swedish Models And Cocaine [4:12]
06. Not A Robot [3:33]
07. Sick City [4:17]
08. Nothing For Nothing [4:08]
09. Watching Over You (feat. Daniel Myer) [4:50]
10. I Got My Bass Back (feat. Shaolyn) [4:46]
11. This Machine [5:04]
12. Ballad Of The Weak [4:07]
13. Scarlight [4:52]
Код:
Exact Audio Copy V1.0 beta 3 from 29. August 2011
Отчёт EAC об извлечении, выполненном 3. июня 2012, 22:09
Faderhead / The World Of Faderhead
Дисковод: PIONEER DVD-RW  DVR-XD10   Adapter: 3  ID: 0
Режим чтения                 : Достоверность
Использование точного потока : Да
Отключение кэша аудио        : Да
Использование указателей C2  : Нет
Коррекция смещения при чтении                     : 96
Способность читать области Lead-in и Lead-out     : Нет
Заполнение пропущенных сэмплов тишиной            : Да
Удаление блоков с тишиной в начале и конце        : Нет
При вычислениях CRC использовались нулевые сэмплы : Да
Интерфейс                                         : Встроенный Win32-интерфейс для Win NT/2000
Выходной формат          : Пользовательский кодировщик
Выбранный битрейт        : 1024 kBit/s
Качество                 : Высокий
Добавление ID3-тега      : Нет
Утилита сжатия           : C:\Program Files\Exact Audio Copy\FLAC\FLAC.EXE
Дополнительные параметры : -6 -V -T "Date=%year%" -T "Genre=%genre%" %source%
TOC извлечённого CD
     Трек |   Старт  | Длительность | Начальный сектор | Конечный сектор
    ---------------------------------------------------------------------
       1  |  0:00.00 |    3:25.21   |           0      |      15395
       2  |  3:25.21 |    3:04.47   |       15396      |      29242
       3  |  6:29.68 |    4:13.59   |       29243      |      48276
       4  | 10:43.52 |    5:36.61   |       48277      |      73537
       5  | 16:20.38 |    4:12.10   |       73538      |      92447
       6  | 20:32.48 |    3:32.58   |       92448      |     108405
       7  | 24:05.31 |    4:16.43   |      108406      |     127648
       8  | 28:21.74 |    4:08.25   |      127649      |     146273
       9  | 32:30.24 |    4:49.63   |      146274      |     168011
      10  | 37:20.12 |    4:45.69   |      168012      |     189455
      11  | 42:06.06 |    5:03.42   |      189456      |     212222
      12  | 47:09.48 |    4:07.36   |      212223      |     230783
      13  | 51:17.09 |    4:51.59   |      230784      |     252667
Характеристики диапазона извлечения и сообщения об ошибках
Выбранный диапазон
     Имя файла C:\Documents and Settings\Наташка\Рабочий стол\Faderhead - The World Of Faderhead.wav
     Пиковый уровень 98.9 %
     Скорость извлечения 3.7 X
     Качество диапазона 99.9 %
     CRC теста 8D3E9E4D
     CRC копии 8D3E9E4D
     Копирование... OK
Ошибок не произошло
AccurateRip: сводка
Трек  1  отсутствует в базе данных
Трек  2  отсутствует в базе данных
Трек  3  отсутствует в базе данных
Трек  4  отсутствует в базе данных
Трек  5  отсутствует в базе данных
Трек  6  отсутствует в базе данных
Трек  7  отсутствует в базе данных
Трек  8  отсутствует в базе данных
Трек  9  отсутствует в базе данных
Трек 10  отсутствует в базе данных
Трек 11  отсутствует в базе данных
Трек 12  отсутствует в базе данных
Трек 13  отсутствует в базе данных
Ни одного трека нет в базе AccurateRip
Конец отчёта
==== Контрольная сумма отчёта 4526239DA7C18D438BDC821F8E42F77CA3A7FD3E0FF13BF0D13304E284BEE6C2 ====
Правила, инструкции, FAQ!!!
Торрент  Добавлен [26 июн 2020, 17:42] Скачать торрент Магнет ссылка
Скачать торрент
[ Размер 17.18 КБ / Просмотров 16 ]

Статус
Проверен 
 
Размер  409.02 МБ
Приватный: Нет (DHT включён)
.torrent скачан  0
 


     Отправить личное сообщение
   
Страница 1 из 1
Показать сообщения за:  Поле сортировки  
Начать новую тему Ответить на тему


Сейчас этот форум просматривают: нет зарегистрированных пользователей и гости: 0


Вы не можете начинать темы
Вы не можете отвечать на сообщения
Вы не можете редактировать свои сообщения
Вы не можете удалять свои сообщения
Вы не можете добавлять вложения

Перейти:  
cron