Начать новую тему Ответить на тему
Статистика раздачи
Размер: 194.02 МБ | Добавлен: 26 июн 2020, 20:04 | Скачали: 0
Сидеров: 0  [0 байт/сек]    Личеров: 0  [0 байт/сек]
Пред. тема | След. тема 

Автор
Сообщение

СообщениеДобавлено: 26 июн 2020, 20:04 

Ответить с цитатой 

Dismantled - Thanks For Everything [Single]
Жанр: EBM future pop
Год выпуска диска: 2006
Производитель диска: (Mindbase, Germany)
Аудио кодек: FLAC
Тип рипа: image+.cue
Битрейт аудио: lossless
Продолжительность: 24:40.10
Трэклист:
1. Thanks For Everything (Club Version) [6:01]
2. Thanks For Everything (Alternate Version) [6:00]
3. Spin (Aerodrone To Dismantled remix) [3:31]
4. Change The World [3:50]
5. Thanks For Everything (Cesium 137 remix) [5:19]
Источник: Физический носитель
Код:
Exact Audio Copy V0.99 prebeta 5 from 4. May 2009
Отчёт EAC об извлечении, выполненном 3. апреля 2010, 22:21
Dismantled / Thanks For Everything [Single]
Дисковод: Optiarc DVD RW AD-7173A   Adapter: 0  ID: 0
Режим чтения                 : Достоверность
Использование точного потока : Да
Отключение кэша аудио        : Да
Использование указателей C2  : Нет
Коррекция смещения при чтении                     : 48
Способность читать области Lead-in и Lead-out     : Нет
Заполнение пропущенных сэмплов тишиной            : Да
Удаление блоков с тишиной в начале и конце        : Нет
При вычислениях CRC использовались нулевые сэмплы : Да
Интерфейс                                         : Установленный внешний ASPI-интерфейс
Выходной формат          : Пользовательский кодировщик
Выбранный битрейт        : 1024 kBit/s
Качество                 : Высокий
Добавление ID3-тэга      : Нет
Утилита сжатия           : C:\Program Files\Exact Audio Copy\Flac\flac.exe
Дополнительные параметры : -6 -V -T "ARTIST=%a" -T "TITLE=%t" -T "ALBUM=%g" -T "DATE=%y" -T "TRACKNUMBER=%n" -T "GENRE=%m" -T "COMMENT=%e" %s -o %d
TOC извлечённого CD
     Трек |   Старт  | Длительность | Начальный сектор | Конечный сектор
    ---------------------------------------------------------------------
       1  |  0:00.00 |    6:00.48   |           0      |      27047
       2  |  6:00.48 |    5:59.57   |       27048      |      54029
       3  | 12:00.30 |    3:30.62   |       54030      |      69841
       4  | 15:31.17 |    3:49.61   |       69842      |      87077
       5  | 19:21.03 |    5:19.07   |       87078      |     111009
Характеристики диапазона извлечения и сообщения об ошибках
Выбранный диапазон
     Имя файла H:\СКАЧКА\FLAC\1 TORRENT\Dismantled - Thanks For Everything [Single].wav
     Пиковый уровень 97.3 %
     Качество диапазона 100.0 %
     CRC теста E3936F3B
     CRC копии E3936F3B
     Копирование... OK
Ошибок не произошло
AccurateRip: сводка
Трек  1  точное извлечение (доверие 1)  [A8CC6698]
Трек  2  точное извлечение (доверие 1)  [6D50F112]
Трек  3  точное извлечение (доверие 1)  [0075E367]
Трек  4  точное извлечение (доверие 1)  [25B988F2]
Трек  5  точное извлечение (доверие 1)  [7BD3305E]
Все треки извлечены точно
Конец отчёта
Хочешь скачать, но не можешь из-за отсутствия сидов - пиши в личку!
Правила, инструкции, FAQ!!!
Торрент  Добавлен [26 июн 2020, 20:04] Скачать торрент Магнет ссылка
Скачать торрент
[ Размер 15.99 КБ / Просмотров 10 ]

Статус
Проверен 
 
Размер  194.02 МБ
Приватный: Нет (DHT включён)
.torrent скачан  0
 


     Отправить личное сообщение
   
Страница 1 из 1
Показать сообщения за:  Поле сортировки  
Начать новую тему Ответить на тему


Сейчас этот форум просматривают: нет зарегистрированных пользователей и гости: 0


Вы не можете начинать темы
Вы не можете отвечать на сообщения
Вы не можете редактировать свои сообщения
Вы не можете удалять свои сообщения
Вы не можете добавлять вложения

Перейти:  
cron