Начать новую тему Ответить на тему
Статистика раздачи
Размер: 198.85 МБ | Добавлен: 26 июн 2020, 20:04 | Скачали: 0
Сидеров: 1  [0 байт/сек]    Личеров: 0  [0 байт/сек]
Пред. тема | След. тема 

Автор
Сообщение

СообщениеДобавлено: 26 июн 2020, 20:04 

Ответить с цитатой 

Dismantled - Dystopia [Single]
Жанр: EBM future pop
Год выпуска диска: 2002
Производитель диска: (Mindbase, Germany)
Аудио кодек: FLAC
Тип рипа: image+.cue
Битрейт аудио: lossless
Продолжительность: 24:50.17
Трэклист:
1. Dystopia (Single mix) [6:12]
2. Dystopia (Album mix) [7:00]
3. Purity (Instrumental) [6:26]
4. On Your Knees [5:12]
Код:
Exact Audio Copy V0.99 prebeta 4 from 23. January 2008
Отчёт EAC об извлечении, выполненном 13. ноября 2009, 20:12
Dismantled / Dystopia
Дисковод: Optiarc DVD RW AD-7173A   Adapter: 0  ID: 0
Режим чтения                 : Достоверность
Использование точного потока : Да
Отключение кэша аудио        : Да
Использование указателей C2  : Нет
Коррекция смещения при чтении                     : 48
Способность читать области Lead-in и Lead-out     : Нет
Заполнение пропущенных сэмплов тишиной            : Да
Удаление блоков с тишиной в начале и конце        : Нет
При вычислениях CRC использовались нулевые сэмплы : Да
Интерфейс                                         : Установленный внешний ASPI-интерфейс
Выходной формат          : Пользовательский кодировщик
Выбранный битрейт        : 1024 kBit/s
Качество                 : Высокий
Добавление ID3-тэга      : Нет
Утилита сжатия           : C:\Program Files\Exact Audio Copy\Flac\flac.exe
Дополнительные параметры : -6 -V -T "ARTIST=%a" -T "TITLE=%t" -T "ALBUM=%g" -T "DATE=%y" -T "TRACKNUMBER=%n" -T "GENRE=%m" -T "COMMENT=%e" %s -o %d
TOC извлечённого CD
     Трек |   Старт  | Длительность | Начальный сектор | Конечный сектор
    ---------------------------------------------------------------------
       1  |  0:00.00 |    6:12.34   |           0      |      27933
       2  |  6:12.34 |    6:59.49   |       27934      |      59407
       3  | 13:12.08 |    6:26.20   |       59408      |      88377
       4  | 19:38.28 |    5:11.64   |       88378      |     111766
Характеристики диапазона извлечения и сообщения об ошибках
Выбранный диапазон
     Имя файла H:\СКАЧКА\FLAC\1 TORRENT\Dismantled - Dystopia.wav
     Пиковый уровень 99.2 %
     Качество диапазона 100.0 %
     CRC теста 2FA63745
     CRC копии 2FA63745
     Копирование... OK
Ошибок не произошло
AccurateRip: сводка
Трек  1  точное извлечение (доверие 1)  [E6843709]
Трек  2  точное извлечение (доверие 1)  [E7A6D794]
Трек  3  точное извлечение (доверие 1)  [6595870F]
Трек  4  точное извлечение (доверие 1)  [2F23CF81]
Все треки извлечены точно
Конец отчёта
Хочешь скачать, но не можешь из-за отсутствия сидов - пиши в личку!
Правила, инструкции, FAQ!!!
Торрент  Добавлен [26 июн 2020, 20:04] Скачать торрент Магнет ссылка
Скачать торрент
[ Размер 16.31 КБ / Просмотров 3 ]

Статус
Проверен 
 
Размер  198.85 МБ
Приватный: Нет (DHT включён)
.torrent скачан  0
 


     Отправить личное сообщение
   
Страница 1 из 1
Показать сообщения за:  Поле сортировки  
Начать новую тему Ответить на тему


Сейчас этот форум просматривают: нет зарегистрированных пользователей и гости: 0


Вы не можете начинать темы
Вы не можете отвечать на сообщения
Вы не можете редактировать свои сообщения
Вы не можете удалять свои сообщения
Вы не можете добавлять вложения

Перейти:  
cron