Начать новую тему Ответить на тему
Статистика раздачи
Размер: 326.09 МБ | Добавлен: 26 июн 2020, 20:41 | Скачали: 0
Сидеров: 0  [0 байт/сек]    Личеров: 0  [0 байт/сек]
Пред. тема | След. тема 

Автор
Сообщение

СообщениеДобавлено: 26 июн 2020, 20:41 

Ответить с цитатой 

Das-Kollektiv.Net / Eichenriegel
Жанр: EBM / future pop / darkwave
Страна-производитель диска: Germany
Год издания диска: 2009
Издатель (лейбл): Danse Macabre
Аудиокодек: FLAC (*.flac)
Тип рипа: image+.cue
Битрейт аудио: lossless
Продолжительность: 39:59.20
Источник (релизер): Физический носитель
Наличие сканов в содержимом раздачи: да
Треклист:
01. Gottverlassen [3:46]
02. Letzter Zeuge [3:54]
03. Wut [4:05]
04. Splitter [2:30]
05. Was Kommt Dann? [3:00]
06. Moment [4:55]
07. Grenzland [4:27]
08. Tief Im Herzen Eichenriegel [4:39]
09. Sieh Deine Seele [3:35]
10. Die Stimme [5:07]
Код:
Exact Audio Copy V0.99 prebeta 5 from 4. May 2009
Отчёт EAC об извлечении, выполненном 2. апреля 2011, 8:39
Das-Kollektiv.Net / Eichenriegel
Дисковод: Optiarc DVD RW AD-7173A   Adapter: 0  ID: 0
Режим чтения                 : Достоверность
Использование точного потока : Да
Отключение кэша аудио        : Да
Использование указателей C2  : Нет
Коррекция смещения при чтении                     : 48
Способность читать области Lead-in и Lead-out     : Нет
Заполнение пропущенных сэмплов тишиной            : Да
Удаление блоков с тишиной в начале и конце        : Нет
При вычислениях CRC использовались нулевые сэмплы : Да
Интерфейс                                         : Установленный внешний ASPI-интерфейс
Выходной формат          : Пользовательский кодировщик
Выбранный битрейт        : 1024 kBit/s
Качество                 : Высокий
Добавление ID3-тэга      : Нет
Утилита сжатия           : C:\Program Files\Exact Audio Copy\flac.exe
Дополнительные параметры : -6 -V -T "ARTIST=%a" -T "TITLE=%t" -T "ALBUM=%g" -T "DATE=%y" -T "TRACKNUMBER=%n" -T "GENRE=%m" -T "COMMENT=%e" %s -o %d
TOC извлечённого CD
     Трек |   Старт  | Длительность | Начальный сектор | Конечный сектор
    ---------------------------------------------------------------------
       1  |  0:00.00 |    3:46.27   |           0      |      16976
       2  |  3:46.27 |    3:54.10   |       16977      |      34536
       3  |  7:40.37 |    4:05.18   |       34537      |      52929
       4  | 11:45.55 |    2:30.16   |       52930      |      64195
       5  | 14:15.71 |    3:00.16   |       64196      |      77711
       6  | 17:16.12 |    4:55.28   |       77712      |      99864
       7  | 22:11.40 |    4:26.54   |       99865      |     119868
       8  | 26:38.19 |    4:38.73   |      119869      |     140791
       9  | 31:17.17 |    3:34.61   |      140792      |     156902
      10  | 34:52.03 |    5:07.17   |      156903      |     179944
Характеристики диапазона извлечения и сообщения об ошибках
Выбранный диапазон
     Имя файла D:\Музыка\Das-Kollektiv.Net - Eichenriegel.wav
     Пиковый уровень 100.0 %
     Качество диапазона 100.0 %
     CRC теста 1149316E
     CRC копии 1149316E
     Копирование... OK
Ошибок не произошло
AccurateRip: сводка
Трек  1  нет в базе данных
Трек  2  нет в базе данных
Трек  3  нет в базе данных
Трек  4  нет в базе данных
Трек  5  нет в базе данных
Трек  6  нет в базе данных
Трек  7  нет в базе данных
Трек  8  нет в базе данных
Трек  9  нет в базе данных
Трек 10  нет в базе данных
Ни одного трека нет в базе AccurateRip
Конец отчёта
Правила, инструкции, FAQ!!!
Торрент  Добавлен [26 июн 2020, 20:41] Скачать торрент Магнет ссылка
Скачать торрент
[ Размер 13.85 КБ / Просмотров 9 ]

Статус
Проверен 
 
Размер  326.09 МБ
Приватный: Нет (DHT включён)
.torrent скачан  0
 


     Отправить личное сообщение
   
Страница 1 из 1
Показать сообщения за:  Поле сортировки  
Начать новую тему Ответить на тему


Сейчас этот форум просматривают: нет зарегистрированных пользователей и гости: 0


Вы не можете начинать темы
Вы не можете отвечать на сообщения
Вы не можете редактировать свои сообщения
Вы не можете удалять свои сообщения
Вы не можете добавлять вложения

Перейти:  
cron