Начать новую тему Ответить на тему
Статистика раздачи
Размер: 413.46 МБ | Добавлен: 26 июн 2020, 17:59 | Скачали: 0
Сидеров: 0  [0 байт/сек]    Личеров: 0  [0 байт/сек]
Пред. тема | След. тема 

Автор
Сообщение

СообщениеДобавлено: 26 июн 2020, 17:59 

Ответить с цитатой 

Angels & Agony - Eternity
Жанр: EBM future pop
Год выпуска диска: 2001
Производитель диска: (Out Of Line, Germany)
Аудио кодек: FLAC
Тип рипа: image+.cue
Битрейт аудио: lossless
Продолжительность: 57:01.12
Трэклист:
1. Tao [03:47.00]
2. One [05:32.67]
3. Revelation [05:34.61]
4. Darkness [08:04.45]
5. Surrender [05:37.03]
6. Don't Be Afraid [04:12.04]
7. Heart & Soul [04:08.60]
8. Forever [05:59.55]
9. Into The Sun [05:02.61]
10. Promised Land [04:59.16]
11. Eternal Entity [04:02.15]
Код:
Exact Audio Copy V0.99 prebeta 4 from 23. January 2008
Отчёт EAC об извлечении, выполненном 5. декабря 2008, 9:50
Angels & Agony / Eternity
Дисковод: Optiarc DVD RW AD-7173A   Adapter: 0  ID: 0
Режим чтения                 : Достоверность
Использование точного потока : Да
Отключение кэша аудио        : Да
Использование указателей C2  : Нет
Коррекция смещения при чтении                     : 48
Способность читать области Lead-in и Lead-out     : Нет
Заполнение пропущенных сэмплов тишиной            : Да
Удаление блоков с тишиной в начале и конце        : Нет
При вычислениях CRC использовались нулевые сэмплы : Да
Интерфейс                                         : Встроенный Win32-интерфейс для Win NT/2000
Выходной формат          : Пользовательский кодировщик
Выбранный битрейт        : 1024 kBit/s
Качество                 : Высокий
Добавление ID3-тэга      : Нет
Утилита сжатия           : C:\Program Files\Exact Audio Copy\Flac\flac.exe
Дополнительные параметры : -6 -V -T "ARTIST=%a" -T "TITLE=%t" -T "ALBUM=%g" -T "DATE=%y" -T "TRACKNUMBER=%n" -T "GENRE=%m" -T "COMMENT=%e" %s -o %d
TOC извлечённого CD
     Трек |   Старт  | Длительность | Начальный сектор | Конечный сектор
    ---------------------------------------------------------------------
       1  |  0:00.00 |    3:47.00   |           0      |      17024
       2  |  3:47.00 |    5:32.67   |       17025      |      41991
       3  |  9:19.67 |    5:34.61   |       41992      |      67102
       4  | 14:54.53 |    8:04.45   |       67103      |     103447
       5  | 22:59.23 |    5:37.03   |      103448      |     128725
       6  | 28:36.26 |    4:12.04   |      128726      |     147629
       7  | 32:48.30 |    4:08.60   |      147630      |     166289
       8  | 36:57.15 |    5:59.55   |      166290      |     193269
       9  | 42:56.70 |    5:02.61   |      193270      |     215980
      10  | 47:59.56 |    4:59.16   |      215981      |     238421
      11  | 52:58.72 |    4:02.15   |      238422      |     256586
Характеристики диапазона извлечения и сообщения об ошибках
Выбранный диапазон
     Имя файла G:\СКАЧКА\FLAC\Angels & Agony - Eternity.wav
     Пиковый уровень 99.0 %
     Качество диапазона 100.0 %
     CRC теста 130E8200
     CRC копии 130E8200
     Копирование... OK
Ошибок не произошло
Конец отчёта
Правила, инструкции, FAQ!!!
Торрент  Добавлен [26 июн 2020, 17:59] Скачать торрент Магнет ссылка
Скачать торрент
[ Размер 16.89 КБ / Просмотров 11 ]

Статус
Проверен 
 
Размер  413.46 МБ
Приватный: Нет (DHT включён)
.torrent скачан  0
 


     Отправить личное сообщение
   
Страница 1 из 1
Показать сообщения за:  Поле сортировки  
Начать новую тему Ответить на тему


Сейчас этот форум просматривают: нет зарегистрированных пользователей и гости: 0


Вы не можете начинать темы
Вы не можете отвечать на сообщения
Вы не можете редактировать свои сообщения
Вы не можете удалять свои сообщения
Вы не можете добавлять вложения

Перейти:  
cron