Начать новую тему Ответить на тему
Статистика раздачи
Размер: 381.4 МБ | Добавлен: 26 июн 2020, 17:33 | Скачали: 0
Сидеров: 0  [0 байт/сек]    Личеров: 0  [0 байт/сек]
Пред. тема | След. тема 

Автор
Сообщение

СообщениеДобавлено: 26 июн 2020, 17:33 

Ответить с цитатой 

Frontal / Alles Anders
Жанр: EBM
Страна-производитель диска: Germany
Год издания: 2012
Издатель (лейбл): Whiterock Records
Номер по каталогу: WRR0348
Страна: Germany
Аудиокодек: FLAC (*.flac)
Тип рипа: image+.cue
Битрейт аудио: lossless
Продолжительность: 0:55:38.58
Источник (релизер): CD из личной коллекции.
Наличие сканов в содержимом раздачи: да
Треклист:
01. Alles Anders 5:26
02. Wir Sind Wir 4:06
03. Komm Her Zu Mir 3:38
04. Meine Kleine Welt 3:34
05. Kann Sein 4:00
06. Alptraum 4:06
07. Falsches Spiel 4:28
08. Ein Teil Von Dir 3:36
09. Lass Mich 4:08
10. Steh Auf 3:32
11. Alles Anders (Combat Company Cover) 5:22
12. Wo Bist Du (Roughhausen Remix) 5:32
13. Alptraum (Danny Fox Mix) 4:07
Discogs
Код:
Exact Audio Copy V1.0 beta 3 from 29. August 2011
Отчёт EAC об извлечении, выполненном 25. июня 2012, 8:22
Frontal / Alles Anders
Дисковод: PIONEER DVD-RW  DVR-XD10   Adapter: 1  ID: 0
Режим чтения                 : Достоверность
Использование точного потока : Да
Отключение кэша аудио        : Да
Использование указателей C2  : Нет
Коррекция смещения при чтении                     : 96
Способность читать области Lead-in и Lead-out     : Нет
Заполнение пропущенных сэмплов тишиной            : Да
Удаление блоков с тишиной в начале и конце        : Нет
При вычислениях CRC использовались нулевые сэмплы : Да
Интерфейс                                         : Встроенный Win32-интерфейс для Win NT/2000
Выходной формат          : Пользовательский кодировщик
Выбранный битрейт        : 1024 kBit/s
Качество                 : Высокий
Добавление ID3-тега      : Нет
Утилита сжатия           : C:\Program Files\Exact Audio Copy\FLAC\FLAC.EXE
Дополнительные параметры : -V -8 -T "Date=%year%" -T "Genre=%genre%" %source%
TOC извлечённого CD
     Трек |   Старт  | Длительность | Начальный сектор | Конечный сектор
    ---------------------------------------------------------------------
       1  |  0:00.00 |    5:26.15   |           0      |      24464
       2  |  5:26.15 |    4:06.01   |       24465      |      42915
       3  |  9:32.16 |    3:38.03   |       42916      |      59268
       4  | 13:10.19 |    3:34.23   |       59269      |      75341
       5  | 16:44.42 |    4:00.01   |       75342      |      93342
       6  | 20:44.43 |    4:06.01   |       93343      |     111793
       7  | 24:50.44 |    4:28.57   |      111794      |     131950
       8  | 29:19.26 |    3:36.01   |      131951      |     148151
       9  | 32:55.27 |    4:08.31   |      148152      |     166782
      10  | 37:03.58 |    3:32.26   |      166783      |     182708
      11  | 40:36.09 |    5:22.59   |      182709      |     206917
      12  | 45:58.68 |    5:32.57   |      206918      |     231874
      13  | 51:31.50 |    4:07.08   |      231875      |     250407
Характеристики диапазона извлечения и сообщения об ошибках
Выбранный диапазон
     Имя файла C:\Users\Алексей\Desktop\iPOD\Frontal - Alles Anders.wav
     Пиковый уровень 100.0 %
     Скорость извлечения 4.2 X
     Качество диапазона 100.0 %
     CRC теста E6B4CDAC
     CRC копии E6B4CDAC
     Копирование... OK
Ошибок не произошло
AccurateRip: сводка
Трек  1  отсутствует в базе данных
Трек  2  отсутствует в базе данных
Трек  3  отсутствует в базе данных
Трек  4  отсутствует в базе данных
Трек  5  отсутствует в базе данных
Трек  6  отсутствует в базе данных
Трек  7  отсутствует в базе данных
Трек  8  отсутствует в базе данных
Трек  9  отсутствует в базе данных
Трек 10  отсутствует в базе данных
Трек 11  отсутствует в базе данных
Трек 12  отсутствует в базе данных
Трек 13  отсутствует в базе данных
Ни одного трека нет в базе AccurateRip
Конец отчёта
==== Контрольная сумма отчёта AE8FCAE228EAE8FAA558369F08726FF37EA3F82CFCB360F3A5A379967F62E9AB ====
Код:
REM GENRE EBM
REM DATE 2012
REM DISCID B60D0A0D
REM COMMENT "ExactAudioCopy v1.0b3"
PERFORMER "Frontal"
TITLE "Alles Anders"
FILE "Frontal - Alles Anders.flac" WAVE
  TRACK 01 AUDIO
    TITLE "Alles Anders"
    PERFORMER "Frontal"
    ISRC 000000000000
    INDEX 01 00:00:00
  TRACK 02 AUDIO
    TITLE "Wir Sind Wir"
    PERFORMER "Frontal"
    ISRC 000000000000
    INDEX 01 05:26:15
  TRACK 03 AUDIO
    TITLE "Komm Her Zu Mir"
    PERFORMER "Frontal"
    ISRC 000000000000
    INDEX 01 09:32:16
  TRACK 04 AUDIO
    TITLE "Meine Kleine Welt"
    PERFORMER "Frontal"
    ISRC 000000000000
    INDEX 01 13:10:19
  TRACK 05 AUDIO
    TITLE "Kann Sein"
    PERFORMER "Frontal"
    ISRC 000000000000
    INDEX 01 16:44:42
  TRACK 06 AUDIO
    TITLE "Alptraum"
    PERFORMER "Frontal"
    ISRC 000000000000
    INDEX 01 20:44:43
  TRACK 07 AUDIO
    TITLE "Falsches Spiel"
    PERFORMER "Frontal"
    ISRC 000000000000
    INDEX 01 24:50:44
  TRACK 08 AUDIO
    TITLE "Ein Teil Von Dir"
    PERFORMER "Frontal"
    ISRC 000000000000
    INDEX 01 29:19:26
  TRACK 09 AUDIO
    TITLE "Lass Mich"
    PERFORMER "Frontal"
    ISRC 000000000000
    INDEX 01 32:55:27
  TRACK 10 AUDIO
    TITLE "Steh Auf"
    PERFORMER "Frontal"
    ISRC 000000000000
    INDEX 01 37:03:58
  TRACK 11 AUDIO
    TITLE "Alles Anders (Combat Company Cover)"
    PERFORMER "Frontal"
    ISRC 000000000000
    INDEX 01 40:36:09
  TRACK 12 AUDIO
    TITLE "Wo Bist Du (Roughhausen Remix)"
    PERFORMER "Frontal"
    ISRC 000000000000
    INDEX 01 45:58:68
  TRACK 13 AUDIO
    TITLE "Alptraum (Danny Fox Mix)"
    PERFORMER "Frontal"
    ISRC 000000000000
    INDEX 01 51:31:50
Код:
[url=https://fastpic.ru/view/41/2012/0627/f034a28d32a9869eee9ff80c6854fb70.jpg.html][img]http://i41.fastpic.ru/thumb/2012/0627/70/f034a28d32a9869eee9ff80c6854fb70.jpeg[/img][/url][url=https://fastpic.ru/view/42/2012/0627/9b211e146f7b51ccc63ad3ba6d8bd977.jpg.html][img]http://i42.fastpic.ru/thumb/2012/0627/77/9b211e146f7b51ccc63ad3ba6d8bd977.jpeg[/img][/url][url=https://fastpic.ru/view/40/2012/0627/932c45afa834bd2911601c5f95866a18.jpg.html][img]http://i40.fastpic.ru/thumb/2012/0627/18/932c45afa834bd2911601c5f95866a18.jpeg[/img][/url][url=https://fastpic.ru/view/40/2012/0627/191e5a5345a7613df346aa42346b748b.jpg.html][img]http://i40.fastpic.ru/thumb/2012/0627/8b/191e5a5345a7613df346aa42346b748b.jpeg[/img][/url][url=https://fastpic.ru/view/41/2012/0627/db2e5c3eddebdffa6c1d93c8924b9fe2.jpg.html][img]http://i41.fastpic.ru/thumb/2012/0627/e2/db2e5c3eddebdffa6c1d93c8924b9fe2.jpeg[/img][/url]
Правила, инструкции, FAQ!!!
Торрент  Добавлен [26 июн 2020, 17:33] Скачать торрент Магнет ссылка
Скачать торрент
[ Размер 16.02 КБ / Просмотров 10 ]

Статус
Проверен 
 
Размер  381.4 МБ
Приватный: Нет (DHT включён)
.torrent скачан  0
 


     Отправить личное сообщение
   
Страница 1 из 1
Показать сообщения за:  Поле сортировки  
Начать новую тему Ответить на тему


Сейчас этот форум просматривают: нет зарегистрированных пользователей и гости: 0


Вы не можете начинать темы
Вы не можете отвечать на сообщения
Вы не можете редактировать свои сообщения
Вы не можете удалять свои сообщения
Вы не можете добавлять вложения

Перейти:  
cron