Начать новую тему Ответить на тему
Статистика раздачи
Размер: 112.42 МБ | Добавлен: 26 июн 2020, 17:34 | Скачали: 0
Сидеров: 1  [0 байт/сек]    Личеров: 0  [0 байт/сек]
Пред. тема | След. тема 

Автор
Сообщение

СообщениеДобавлено: 26 июн 2020, 17:34 

Ответить с цитатой 

Front 242 - Masterhit MCD

Жанр: EBM
Год выпуска диска: 1990 Re.1987
Производитель диска: Belgium/Red Rhino Europe_RRE CD 9
Аудио кодек: FLAC
Тип рипа: tracks+.cue
Битрейт аудио: lossless
Продолжительность: 18:53

Трэклист:
01. Masterhit (Masterblaster 45 RPM) (7:12)
02. Masterhit (Hypnomix 33 RPM) (4:37)
03. Masterhit (LP Version 33 RPM) (7:04)
Код:
Exact Audio Copy V0.99 prebeta 4 from 23. January 2008
EAC extraction logfile from 7. May 2009, 20:53
Front 242 / Masterhit MCD
Used drive  : SONY    DVD RW DRU-710A   Adapter: 0  ID: 1
Read mode               : Secure
Utilize accurate stream : Yes
Defeat audio cache      : Yes
Make use of C2 pointers : No
Read offset correction                      : 12
Overread into Lead-In and Lead-Out          : No
Fill up missing offset samples with silence : Yes
Delete leading and trailing silent blocks   : No
Null samples used in CRC calculations       : Yes
Used interface                              : Native Win32 interface for Win NT & 2000
Gap handling                                : Appended to previous track
Used output format              : User Defined Encoder
Selected bitrate                : 128 kBit/s
Quality                         : High
Add ID3 tag                     : No
Command line compressor         : C:\Program Files\FLAC\flac.exe
Additional command line options : -V -8 -T "artist=%a" -T "title=%t" -T "album=%g" -T "date=%y" -T "tracknumber=%n" -T "genre=%m" %s
TOC of the extracted CD
     Track |   Start  |  Length  | Start sector | End sector
    ---------------------------------------------------------
        1  |  0:00.00 |  7:12.27 |         0    |    32426
        2  |  7:12.27 |  4:37.10 |     32427    |    53211
        3  | 11:49.37 |  7:03.58 |     53212    |    84994
Track  1
     Filename E:\Front 242 - Masterhit EP\01 - Front 242 - Masterhit (Masterblaster).wav
     Pre-gap length  0:00:02.00
     Peak level 99.2 %
     Track quality 99.9 %
     Test CRC 08362CBE
     Copy CRC 08362CBE
     Accurately ripped (confidence 3)  [B9FE8771]
     Copy OK
Track  2
     Filename E:\Front 242 - Masterhit EP\02 - Front 242 - Masterhit (Hypnomix).wav
     Pre-gap length  0:00:04.02
     Peak level 83.3 %
     Track quality 100.0 %
     Test CRC 624C4C13
     Copy CRC 624C4C13
     Accurately ripped (confidence 3)  [93A78A1C]
     Copy OK
Track  3
     Filename E:\Front 242 - Masterhit EP\03 - Front 242 - Masterhit (LP Version).wav
     Pre-gap length  0:00:02.33
     Peak level 70.1 %
     Track quality 100.0 %
     Test CRC 3E3BE9D0
     Copy CRC 3E3BE9D0
     Accurately ripped (confidence 3)  [AE1D0C96]
     Copy OK
All tracks accurately ripped
No errors occurred
End of status report
Правила, инструкции, FAQ!!!
Торрент  Добавлен [26 июн 2020, 17:34] Скачать торрент Магнет ссылка
Скачать торрент
[ Размер 18.53 КБ / Просмотров 13 ]

Статус
Проверен 
 
Размер  112.42 МБ
Приватный: Нет (DHT включён)
.torrent скачан  0
 


     Отправить личное сообщение
   
Страница 1 из 1
Показать сообщения за:  Поле сортировки  
Начать новую тему Ответить на тему


Сейчас этот форум просматривают: нет зарегистрированных пользователей и гости: 0


Вы не можете начинать темы
Вы не можете отвечать на сообщения
Вы не можете редактировать свои сообщения
Вы не можете удалять свои сообщения
Вы не можете добавлять вложения

Перейти:  
cron