Начать новую тему Ответить на тему
Статистика раздачи
Размер: 582.87 МБ | Добавлен: 26 июн 2020, 20:18 | Скачали: 0
Сидеров: 3  [0 байт/сек]    Личеров: 1  [0 байт/сек]
Пред. тема | След. тема 

Автор
Сообщение

СообщениеДобавлено: 26 июн 2020, 20:18 

Ответить с цитатой 

Front 242 - Live Target [GUZZI 888]
Жанр: EBM
Страна-производитель диска: Italy
Год издания диска: 1992
Издатель (лейбл): Guzzi
Номер по каталогу: GUZZI 888
Страна: Belgium
Аудио кодек: FLAC (*.flac)
Тип рипа: image+.cue
Битрейт аудио: lossless
Продолжительность: 73min.33sec.
Источник (релизер): Собственный Рип
Наличие сканов в содержимом раздачи: да (600 dpi)
Треклист:
01. Rhythm of time
02. Soul manager
03. Don't crash
04. Im rhythmus bleiben
05. DSM & Moldavia
06. No shuffle
07. Gripped by fear
08. Never stop
09. Headhunter
10. Tragedy for you
11. Welcome to paradise
12. Punish your machine
13. Intro + Circling overland
Код:
Exact Audio Copy V0.99 prebeta 4 from 23. January 2008
EAC extraction logfile from 17. January 2011, 18:58
Front 242 / Live Target
Used drive  : TEAC    CD-W58E   Adapter: 3  ID: 1
Read mode               : Secure
Utilize accurate stream : Yes
Defeat audio cache      : Yes
Make use of C2 pointers : No
Read offset correction                      : 685
Overread into Lead-In and Lead-Out          : No
Fill up missing offset samples with silence : Yes
Delete leading and trailing silent blocks   : No
Null samples used in CRC calculations       : Yes
Used interface                              : Native Win32 interface for Win NT & 2000
Used output format              : User Defined Encoder
Selected bitrate                : 128 kBit/s
Quality                         : High
Add ID3 tag                     : No
Command line compressor         : C:\Program Files\FLAC\flac.exe
Additional command line options : -8 -V -T "ARTIST=%a" -T "TITLE=%t" -T "ALBUM=%g" -T "DATE=%y" -T "TRACKNUMBER=%n" -T "GENRE=%m" -T"COMENT=EAC FLAC -8" %s
TOC of the extracted CD
     Track |   Start  |  Length  | Start sector | End sector
    ---------------------------------------------------------
        1  |  0:00.32 |  7:36.03 |        32    |    34234
        2  |  7:36.35 |  4:19.47 |     34235    |    53706
        3  | 11:56.07 |  4:14.48 |     53707    |    72804
        4  | 16:10.55 |  3:34.12 |     72805    |    88866
        5  | 19:44.67 | 12:21.60 |     88867    |   144501
        6  | 32:06.52 |  3:45.35 |    144502    |   161411
        7  | 35:52.12 |  4:47.43 |    161412    |   182979
        8  | 40:39.55 |  4:22.22 |    182980    |   202651
        9  | 45:02.02 |  5:05.15 |    202652    |   225541
       10  | 50:07.17 |  4:59.00 |    225542    |   247966
       11  | 55:06.17 |  3:58.63 |    247967    |   265879
       12  | 59:05.05 |  5:31.55 |    265880    |   290759
       13  | 64:36.60 |  8:55.70 |    290760    |   330954
Range status and errors
Selected range
     Filename D:\Live Target (GUZZI 888) (1992)\Front 242 - Live Target.wav
     Peak level 99.2 %
     Range quality 99.9 %
     Test CRC 68432902
     Copy CRC 68432902
     Copy OK
No errors occurred
AccurateRip summary
Track  1  not present in database
Track  2  not present in database
Track  3  not present in database
Track  4  not present in database
Track  5  not present in database
Track  6  not present in database
Track  7  not present in database
Track  8  not present in database
Track  9  not present in database
Track 10  not present in database
Track 11  not present in database
Track 12  not present in database
Track 13  not present in database
None of the tracks are present in the AccurateRip database
End of status report
Доп. информация:DISCOGS.COM
ENJOY!
Правила, инструкции, FAQ!!!
Торрент  Добавлен [26 июн 2020, 20:18] Скачать торрент Магнет ссылка
Скачать торрент
[ Размер 12.26 КБ / Просмотров 6 ]

Статус
Проверен 
 
Размер  582.87 МБ
Приватный: Нет (DHT включён)
.torrent скачан  0
 


     Отправить личное сообщение
   
Страница 1 из 1
Показать сообщения за:  Поле сортировки  
Начать новую тему Ответить на тему


Сейчас этот форум просматривают: нет зарегистрированных пользователей и гости: 0


Вы не можете начинать темы
Вы не можете отвечать на сообщения
Вы не можете редактировать свои сообщения
Вы не можете удалять свои сообщения
Вы не можете добавлять вложения

Перейти:  
cron