Начать новую тему Ответить на тему
Статистика раздачи
Размер: 424.19 МБ | Добавлен: 26 июн 2020, 20:18 | Скачали: 0
Сидеров: 0  [0 байт/сек]    Личеров: 0  [0 байт/сек]
Пред. тема | След. тема 

Автор
Сообщение

СообщениеДобавлено: 26 июн 2020, 20:18 

Ответить с цитатой 

Front 242 Live Code 5413356 424225
Жанр: EBM
Год выпуска диска: 1994
Производитель диска: Austria
Аудио кодек: FLAC
Тип рипа: image+.cue
Битрейт аудио: lossless
Продолжительность: 60min 47sek
Трэклист:
1. Der Verfluchte Engel
2. Motion
3. Masterhit
4. Flag
5. Tragedy For You
6. In Rhythmus Bleiben
7. Skin
8. Headhunter
9. Welcome To Paradise
10. Crapage
11. Soul Manager
12. Punish Your Machine
13. Religion
Доп. информация: This Live-Recording Was Made For VPRO Radio 3 on the 25th October 1993 at MC Vredenburg Utrecht Holland
Диск из моей коллекции
Exact Audio Copy V0.99 prebeta 5 from 4. May 2009
Отчёт EAC об извлечении, выполненном 26. сентября 2009, 3:48
Front 242 / Live Code 5413356 424225
Дисковод: TSSTcorpCD/DVDW SH-S182M Adapter: 0 ID: 0
Режим чтения : Достоверность
Использование точного потока : Да
Отключение кэша аудио : Да
Использование указателей C2 : Нет
Коррекция смещения при чтении : 6
Способность читать области Lead-in и Lead-out : Нет
Заполнение пропущенных сэмплов тишиной : Да
Удаление блоков с тишиной в начале и конце : Нет
При вычислениях CRC использовались нулевые сэмплы : Да
Интерфейс : Встроенный Win32-интерфейс для Win NT/2000
Выходной формат : Пользовательский кодировщик
Выбранный битрейт : 768 kBit/s
Качество : Высокий
Добавление ID3-тэга : Нет
Утилита сжатия : C:\Program Files\Exact Audio Copy\FLAC\FLAC.EXE
Дополнительные параметры : -6 -V -T "ARTIST=%a" -T "TITLE=%t" -T "ALBUM=%g" -T "DATE=%y" -T "TRACKNUMBER=%n" -T "GENRE=%m" -T "COMMENT=%e" %s -o %d
TOC извлечённого CD
Трек | Старт | Длительность | Начальный сектор | Конечный сектор
---------------------------------------------------------------------
1 | 0:00.00 | 6:08.55 | 0 | 27654
2 | 6:08.55 | 3:28.42 | 27655 | 43296
3 | 9:37.22 | 4:32.15 | 43297 | 63711
4 | 14:09.37 | 2:56.38 | 63712 | 76949
5 | 17:06.00 | 4:34.12 | 76950 | 97511
6 | 21:40.12 | 3:28.28 | 97512 | 113139
7 | 25:08.40 | 3:17.17 | 113140 | 127931
8 | 28:25.57 | 4:40.40 | 127932 | 148971
9 | 33:06.22 | 4:51.55 | 148972 | 170851
10 | 37:58.02 | 6:01.50 | 170852 | 197976
11 | 43:59.52 | 4:22.63 | 197977 | 217689
12 | 48:22.40 | 5:04.50 | 217690 | 240539
13 | 53:27.15 | 7:18.37 | 240540 | 273426
Характеристики диапазона извлечения и сообщения об ошибках
Выбранный диапазон
Имя файла C:\Documents and Settings\User\Мои документы\Downloads\Front 242 Live Code 5413356 424225\Front 242 - Live Code 5413356 424225.wav
Пиковый уровень 97.7 %
Качество диапазона 100.0 %
CRC теста 27B6D2C7
CRC копии 27B6D2C7
Копирование... OK
Ошибок не произошло
AccurateRip: сводка
Трек 1 точное извлечение (доверие 20) [864428BE]
Трек 2 точное извлечение (доверие 20) [83427368]
Трек 3 точное извлечение (доверие 20) [B02175BF]
Трек 4 точное извлечение (доверие 20) [73AC7A93]
Трек 5 точное извлечение (доверие 20) [EF7E928A]
Трек 6 точное извлечение (доверие 20) [6243CB2E]
Трек 7 точное извлечение (доверие 20) [0CFD2070]
Трек 8 точное извлечение (доверие 19) [3038D3DF]
Трек 9 точное извлечение (доверие 20) [BF8FA76E]
Трек 10 точное извлечение (доверие 19) [33FC4A92]
Трек 11 точное извлечение (доверие 20) [33AF22AD]
Трек 12 точное извлечение (доверие 20) [5B45448A]
Трек 13 точное извлечение (доверие 20) [2C17DF2E]
Все треки извлечены точно
Конец отчёта
Правила, инструкции, FAQ!!!
Торрент  Добавлен [26 июн 2020, 20:18] Скачать торрент Магнет ссылка
Скачать торрент
[ Размер 17.34 КБ / Просмотров 7 ]

Статус
Проверен 
 
Размер  424.19 МБ
Приватный: Нет (DHT включён)
.torrent скачан  0
 


     Отправить личное сообщение
   
Страница 1 из 1
Показать сообщения за:  Поле сортировки  
Начать новую тему Ответить на тему


Сейчас этот форум просматривают: нет зарегистрированных пользователей и гости: 0


Вы не можете начинать темы
Вы не можете отвечать на сообщения
Вы не можете редактировать свои сообщения
Вы не можете удалять свои сообщения
Вы не можете добавлять вложения

Перейти:  
cron