Начать новую тему Ответить на тему
Статистика раздачи
Размер: 930.1 МБ | Добавлен: 26 июн 2020, 20:58 | Скачали: 0
Сидеров: 0  [0 байт/сек]    Личеров: 0  [0 байт/сек]
Пред. тема | След. тема 

Автор
Сообщение

СообщениеДобавлено: 26 июн 2020, 20:58 

Ответить с цитатой 

Front 242 / No Comment / Politics Of Pressure [Limited Box]
Жанр: EBM
Носитель: CD
Год издания: 2016
Издатель (лейбл): Alfa Matrix
Номер по каталогу: AM2242DLPCD
Аудиокодек: FLAC (*.flac)
Тип рипа: tracks+.cue
Битрейт аудио: lossless
Продолжительность: 2:35:31
Источник: собственный рип
Наличие сканов в содержимом раздачи: обложки
Треклист:
1. Commando Mix 9:29
2. Deceit 3:49
3. Lovely Day 5:26
4. No Shuffle 3:57
5. Special Forces 5:28
6. S.Fr. Nomenklatura <1&2> 6:42
7. Don't Krash 4:52
8. Funkahdafi 3:18
9. Kommando <Remix> 9:09
10. No Shuffle V2 3:47
Код:
Exact Audio Copy V1.3 from 2. September 2016
EAC extraction logfile from 17. February 2019, 12:13
Front 242 / No Comment / Politics Of Pressure
Used drive  : PIONEER BD-RW   BDR-202   Adapter: 1  ID: 0
Read mode               : Secure
Utilize accurate stream : Yes
Defeat audio cache      : Yes
Make use of C2 pointers : No
Read offset correction                      : 667
Overread into Lead-In and Lead-Out          : Yes
Fill up missing offset samples with silence : Yes
Delete leading and trailing silent blocks   : No
Null samples used in CRC calculations       : Yes
Used interface                              : Native Win32 interface for Win NT & 2000
Gap handling                                : Appended to previous track
Used output format              : User Defined Encoder
Selected bitrate                : 1024 kBit/s
Quality                         : High
Add ID3 tag                     : No
Command line compressor         : C:\Program Files (x86)\Exact Audio Copy\FLAC\FLAC.EXE
Additional command line options : -8 -V -T "ARTIST=%artist%" -T "TITLE=%title%" -T "ALBUM=%albumtitle%" -T "DATE=%year%" -T "TRACKNUMBER=%tracknr%" -T "GENRE=%genre%" -T "COMMENT=%comment%" -T "BAND=%albuminterpret%" -T "ALBUMARTIST=%albuminterpret%" -T "COMPOSER=%composer%" %haslyrics%--tag-from-file=LYRICS="%lyricsfile%"%haslyrics% -T "DISCNUMBER=%cdnumber%" -T "TOTALDISCS=%totalcds%" -T "TOTALTRACKS=%numtracks%" %hascover%--picture="%coverfile%"%hascover% %source% -o %dest%
TOC of the extracted CD
     Track |   Start  |  Length  | Start sector | End sector
    ---------------------------------------------------------
        1  |  0:00.00 |  9:29.66 |         0    |    42740
        2  |  9:29.66 |  3:49.32 |     42741    |    59947
        3  | 13:19.23 |  5:26.60 |     59948    |    84457
        4  | 18:46.08 |  3:57.31 |     84458    |   102263
        5  | 22:43.39 |  5:28.26 |    102264    |   126889
        6  | 28:11.65 |  6:42.15 |    126890    |   157054
        7  | 34:54.05 |  4:52.46 |    157055    |   179000
        8  | 39:46.51 |  3:18.11 |    179001    |   193861
        9  | 43:04.62 |  9:09.17 |    193862    |   235053
       10  | 52:14.04 |  3:47.31 |    235054    |   252109
Track  1
     Filename E:\Front 242\Front 242 - [2016] - No Comment , Politics Of Pressure\01 - Commando Mix.wav
     Pre-gap length  0:00:02.00
     Peak level 99.9 %
     Extraction speed 4.5 X
     Track quality 100.0 %
     Test CRC F1FC1AAA
     Copy CRC F1FC1AAA
     Accurately ripped (confidence 6)  [1AFBFE16]  (AR v2)
     Copy OK
Track  2
     Filename E:\Front 242\Front 242 - [2016] - No Comment , Politics Of Pressure\02 - Deceit.wav
     Peak level 97.7 %
     Extraction speed 4.1 X
     Track quality 99.9 %
     Test CRC CC1B1017
     Copy CRC CC1B1017
     Accurately ripped (confidence 6)  [6FDB9A55]  (AR v2)
     Copy OK
Track  3
     Filename E:\Front 242\Front 242 - [2016] - No Comment , Politics Of Pressure\03 - Lovely Day.wav
     Peak level 95.8 %
     Extraction speed 5.1 X
     Track quality 100.0 %
     Test CRC C31970CC
     Copy CRC C31970CC
     Accurately ripped (confidence 6)  [3F98CC6C]  (AR v2)
     Copy OK
Track  4
     Filename E:\Front 242\Front 242 - [2016] - No Comment , Politics Of Pressure\04 - No Shuffle.wav
     Peak level 98.6 %
     Extraction speed 5.2 X
     Track quality 100.0 %
     Test CRC 511BC0E8
     Copy CRC 511BC0E8
     Accurately ripped (confidence 6)  [DA505A8A]  (AR v2)
     Copy OK
Track  5
     Filename E:\Front 242\Front 242 - [2016] - No Comment , Politics Of Pressure\05 - Special Forces.wav
     Peak level 92.0 %
     Extraction speed 5.2 X
     Track quality 99.9 %
     Test CRC DE1E93AC
     Copy CRC DE1E93AC
     Accurately ripped (confidence 6)  [6C478904]  (AR v2)
     Copy OK
Track  6
     Filename E:\Front 242\Front 242 - [2016] - No Comment , Politics Of Pressure\06 - S.Fr. Nomenklatura [1&2].wav
     Peak level 92.4 %
     Extraction speed 6.1 X
     Track quality 100.0 %
     Test CRC A8C6C31C
     Copy CRC A8C6C31C
     Accurately ripped (confidence 6)  [986FB63D]  (AR v2)
     Copy OK
Track  7
     Filename E:\Front 242\Front 242 - [2016] - No Comment , Politics Of Pressure\07 - Don’t Krash.wav
     Pre-gap length  0:00:02.00
     Peak level 99.8 %
     Extraction speed 6.2 X
     Track quality 100.0 %
     Test CRC F7FB13E4
     Copy CRC F7FB13E4
     Accurately ripped (confidence 6)  [4D6DF46F]  (AR v2)
     Copy OK
Track  8
     Filename E:\Front 242\Front 242 - [2016] - No Comment , Politics Of Pressure\08 - Funkahdafi.wav
     Peak level 98.6 %
     Extraction speed 6.1 X
     Track quality 100.0 %
     Test CRC 93B46E73
     Copy CRC 93B46E73
     Accurately ripped (confidence 6)  [52C0FB2D]  (AR v2)
     Copy OK
Track  9
     Filename E:\Front 242\Front 242 - [2016] - No Comment , Politics Of Pressure\09 - Kommando [Remix].wav
     Peak level 94.3 %
     Extraction speed 7.1 X
     Track quality 100.0 %
     Test CRC 8BB7E25E
     Copy CRC 8BB7E25E
     Accurately ripped (confidence 6)  [8167EFA7]  (AR v2)
     Copy OK
Track 10
     Filename E:\Front 242\Front 242 - [2016] - No Comment , Politics Of Pressure\10 - No Shuffle V2.wav
     Pre-gap length  0:00:01.74
     Peak level 100.0 %
     Extraction speed 6.7 X
     Track quality 99.9 %
     Test CRC 87108CF3
     Copy CRC 87108CF3
     Accurately ripped (confidence 6)  [93F9916C]  (AR v2)
     Copy OK
All tracks accurately ripped
No errors occurred
End of status report
---- CUETools DB Plugin V2.1.6
[CTDB TOCID: BRDuCUjfpT.zmKM_Am59pHHZTfg-] found
Submit result: BRDuCUjfpT.zmKM_Am59pHHZTfg- has been confirmed
Track | CTDB Status
  1   | (23/23) Accurately ripped
  2   | (23/23) Accurately ripped
  3   | (23/23) Accurately ripped
  4   | (23/23) Accurately ripped
  5   | (23/23) Accurately ripped
  6   | (23/23) Accurately ripped
  7   | (23/23) Accurately ripped
  8   | (23/23) Accurately ripped
  9   | (23/23) Accurately ripped
 10   | (23/23) Accurately ripped
==== Log checksum 6195EADABD1E591A69EB6C2257994E24EEA2092BA7B25E1B48659E3D9B3AC650 ====
Код:
REM GENRE EBM
REM DATE 2016
REM DISCID 8E0D210A
REM COMMENT "ExactAudioCopy v1.3"
PERFORMER "Front 242"
TITLE "No Comment / Politics Of Pressure"
FILE "01 - Commando Mix.wav" WAVE
  TRACK 01 AUDIO
    TITLE "Commando Mix"
    PERFORMER "Front 242"
    INDEX 01 00:00:00
FILE "02 - Deceit.wav" WAVE
  TRACK 02 AUDIO
    TITLE "Deceit"
    PERFORMER "Front 242"
    INDEX 01 00:00:00
FILE "03 - Lovely Day.wav" WAVE
  TRACK 03 AUDIO
    TITLE "Lovely Day"
    PERFORMER "Front 242"
    INDEX 01 00:00:00
FILE "04 - No Shuffle.wav" WAVE
  TRACK 04 AUDIO
    TITLE "No Shuffle"
    PERFORMER "Front 242"
    INDEX 01 00:00:00
FILE "05 - Special Forces.wav" WAVE
  TRACK 05 AUDIO
    TITLE "Special Forces"
    PERFORMER "Front 242"
    INDEX 01 00:00:00
FILE "06 - S.Fr. Nomenklatura [1&2].wav" WAVE
  TRACK 06 AUDIO
    TITLE "S.Fr. Nomenklatura <1&2>"
    PERFORMER "Front 242"
    INDEX 01 00:00:00
  TRACK 07 AUDIO
    TITLE "Dont Krash"
    PERFORMER "Front 242"
    INDEX 00 06:40:15
FILE "07 - Dont Krash.wav" WAVE
    INDEX 01 00:00:00
FILE "08 - Funkahdafi.wav" WAVE
  TRACK 08 AUDIO
    TITLE "Funkahdafi"
    PERFORMER "Front 242"
    INDEX 01 00:00:00
FILE "09 - Kommando [Remix].wav" WAVE
  TRACK 09 AUDIO
    TITLE "Kommando <Remix>"
    PERFORMER "Front 242"
    INDEX 01 00:00:00
  TRACK 10 AUDIO
    TITLE "No Shuffle V2"
    PERFORMER "Front 242"
    INDEX 00 09:07:18
FILE "10 - No Shuffle V2.wav" WAVE
    INDEX 01 00:00:00
Треклист:
1. S.FR. Nomenklatura "BBMurdermix. 14" 4:51
2. Body To Body V2 4:18
3. In November "Live" 2:42
4. See The Future "Live" 6:24
5. Special Forces "Demo" 4:55
6. Take One "Live In Chicago" 5:06
Код:
Exact Audio Copy V1.3 from 2. September 2016
EAC extraction logfile from 17. February 2019, 12:32
Front 242 / No Comment / Politics Of Pressure
Used drive  : PIONEER BD-RW   BDR-202   Adapter: 1  ID: 0
Read mode               : Secure
Utilize accurate stream : Yes
Defeat audio cache      : Yes
Make use of C2 pointers : No
Read offset correction                      : 667
Overread into Lead-In and Lead-Out          : Yes
Fill up missing offset samples with silence : Yes
Delete leading and trailing silent blocks   : No
Null samples used in CRC calculations       : Yes
Used interface                              : Native Win32 interface for Win NT & 2000
Gap handling                                : Appended to previous track
Used output format              : User Defined Encoder
Selected bitrate                : 1024 kBit/s
Quality                         : High
Add ID3 tag                     : No
Command line compressor         : C:\Program Files (x86)\Exact Audio Copy\FLAC\FLAC.EXE
Additional command line options : -8 -V -T "ARTIST=%artist%" -T "TITLE=%title%" -T "ALBUM=%albumtitle%" -T "DATE=%year%" -T "TRACKNUMBER=%tracknr%" -T "GENRE=%genre%" -T "COMMENT=%comment%" -T "BAND=%albuminterpret%" -T "ALBUMARTIST=%albuminterpret%" -T "COMPOSER=%composer%" %haslyrics%--tag-from-file=LYRICS="%lyricsfile%"%haslyrics% -T "DISCNUMBER=%cdnumber%" -T "TOTALDISCS=%totalcds%" -T "TOTALTRACKS=%numtracks%" %hascover%--picture="%coverfile%"%hascover% %source% -o %dest%
TOC of the extracted CD
     Track |   Start  |  Length  | Start sector | End sector
    ---------------------------------------------------------
        1  |  0:00.00 |  4:51.73 |         0    |    21897
        2  |  4:51.73 |  4:18.42 |     21898    |    41289
        3  |  9:10.40 |  2:42.45 |     41290    |    53484
        4  | 11:53.10 |  6:24.70 |     53485    |    82354
        5  | 18:18.05 |  4:55.00 |     82355    |   104479
        6  | 23:13.05 |  5:06.06 |    104480    |   127435
Track  1
     Filename E:\Front 242\Front 242 - [2016] - No Comment , Politics Of Pressure\01 - S. FR. Nomenklatura ''BBMurdermix. 14''.wav
     Pre-gap length  0:00:02.00
     Peak level 99.7 %
     Extraction speed 4.1 X
     Track quality 100.0 %
     Test CRC 7FBF690B
     Copy CRC 7FBF690B
     Accurately ripped (confidence 2)  [F34FF7AD]  (AR v2)
     Copy OK
Track  2
     Filename E:\Front 242\Front 242 - [2016] - No Comment , Politics Of Pressure\02 - Body To Body V2.wav
     Pre-gap length  0:00:01.74
     Peak level 99.9 %
     Extraction speed 4.4 X
     Track quality 100.0 %
     Test CRC 8BBF2919
     Copy CRC 8BBF2919
     Accurately ripped (confidence 2)  [3E8A6E6C]  (AR v2)
     Copy OK
Track  3
     Filename E:\Front 242\Front 242 - [2016] - No Comment , Politics Of Pressure\03 - In November ''Live''.wav
     Pre-gap length  0:00:01.74
     Peak level 100.0 %
     Extraction speed 4.3 X
     Track quality 100.0 %
     Test CRC 31B51245
     Copy CRC 31B51245
     Accurately ripped (confidence 2)  [BFFF97B5]  (AR v2)
     Copy OK
Track  4
     Filename E:\Front 242\Front 242 - [2016] - No Comment , Politics Of Pressure\04 - See The Future ''Live''.wav
     Pre-gap length  0:00:01.74
     Peak level 99.5 %
     Extraction speed 5.2 X
     Track quality 100.0 %
     Test CRC 2AF6D501
     Copy CRC 2AF6D501
     Accurately ripped (confidence 2)  [70F93C03]  (AR v2)
     Copy OK
Track  5
     Filename E:\Front 242\Front 242 - [2016] - No Comment , Politics Of Pressure\05 - Special Forces ''Demo''.wav
     Pre-gap length  0:00:01.74
     Peak level 98.7 %
     Extraction speed 5.4 X
     Track quality 100.0 %
     Test CRC AF68DAE8
     Copy CRC AF68DAE8
     Accurately ripped (confidence 2)  [8A4961F2]  (AR v2)
     Copy OK
Track  6
     Filename E:\Front 242\Front 242 - [2016] - No Comment , Politics Of Pressure\06 - Take One ''Live Chicago''.wav
     Pre-gap length  0:00:01.74
     Peak level 98.9 %
     Extraction speed 5.8 X
     Track quality 99.9 %
     Test CRC FEE5A6A6
     Copy CRC FEE5A6A6
     Accurately ripped (confidence 2)  [F0036CF7]  (AR v2)
     Copy OK
All tracks accurately ripped
No errors occurred
End of status report
---- CUETools DB Plugin V2.1.6
[CTDB TOCID: 94A1xSZd8wYPyFcfxMlUmmuj1Yg-] found
Submit result: 94A1xSZd8wYPyFcfxMlUmmuj1Yg- has been confirmed
Track | CTDB Status
  1   | (7/7) Accurately ripped
  2   | (7/7) Accurately ripped
  3   | (7/7) Accurately ripped
  4   | (7/7) Accurately ripped
  5   | (7/7) Accurately ripped
  6   | (7/7) Accurately ripped
==== Log checksum 7BB0DFC919B6D7AAE276E2F001731BFFB8FC71D92318E5014A269AE0EC4FAE43 ====
Код:
REM GENRE EBM
REM DATE 2016
REM DISCID 3D06A306
REM COMMENT "ExactAudioCopy v1.3"
PERFORMER "Front 242"
TITLE "No Comment / Politics Of Pressure"
FILE "01 - S. FR. Nomenklatura ''BBMurdermix. 14''.wav" WAVE
  TRACK 01 AUDIO
    TITLE "S. FR. Nomenklatura 'BBMurdermix. 14'"
    PERFORMER "Front 242"
    INDEX 01 00:00:00
  TRACK 02 AUDIO
    TITLE "Body To Body V2"
    PERFORMER "Front 242"
    INDEX 00 04:49:74
FILE "02 - Body To Body V2.wav" WAVE
    INDEX 01 00:00:00
  TRACK 03 AUDIO
    TITLE "In November 'Live'"
    PERFORMER "Front 242"
    INDEX 00 04:16:43
FILE "03 - In November ''Live''.wav" WAVE
    INDEX 01 00:00:00
  TRACK 04 AUDIO
    TITLE "See The Future 'Live'"
    PERFORMER "Front 242"
    INDEX 00 02:40:46
FILE "04 - See The Future ''Live''.wav" WAVE
    INDEX 01 00:00:00
  TRACK 05 AUDIO
    TITLE "Special Forces 'Demo'"
    PERFORMER "Front 242"
    INDEX 00 06:22:71
FILE "05 - Special Forces ''Demo''.wav" WAVE
    INDEX 01 00:00:00
  TRACK 06 AUDIO
    TITLE "Take One 'Live Chicago'"
    PERFORMER "Front 242"
    INDEX 00 04:53:01
FILE "06 - Take One ''Live Chicago''.wav" WAVE
    INDEX 01 00:00:00
Треклист:
1. Intro / Agressiva 8:52
2. Rerun Time 4:27
3. Masterhit 7:29
4. No Shuffle 3:57
5. Body To Body 3:31
6. Television Station 4:02
7. Don't Crash 4:18
8. Lovely Day 3:44
9. Funkahdafi 5:06
10. Red Team 3:59
11. Quite Unusual 6:06
12. WYHIWYG 7:41
13. Slaughter 3:19
14. Commando Mix 4:34
Код:
Exact Audio Copy V1.3 from 2. September 2016
EAC extraction logfile from 17. February 2019, 14:05
Front 242 / Hamburg 87. Official Version
Used drive  : PIONEER BD-RW   BDR-202   Adapter: 1  ID: 0
Read mode               : Secure
Utilize accurate stream : Yes
Defeat audio cache      : Yes
Make use of C2 pointers : No
Read offset correction                      : 667
Overread into Lead-In and Lead-Out          : Yes
Fill up missing offset samples with silence : Yes
Delete leading and trailing silent blocks   : No
Null samples used in CRC calculations       : Yes
Used interface                              : Native Win32 interface for Win NT & 2000
Gap handling                                : Appended to previous track
Used output format              : User Defined Encoder
Selected bitrate                : 1024 kBit/s
Quality                         : High
Add ID3 tag                     : No
Command line compressor         : C:\Program Files (x86)\Exact Audio Copy\FLAC\FLAC.EXE
Additional command line options : -8 -V -T "ARTIST=%artist%" -T "TITLE=%title%" -T "ALBUM=%albumtitle%" -T "DATE=%year%" -T "TRACKNUMBER=%tracknr%" -T "GENRE=%genre%" -T "COMMENT=%comment%" -T "BAND=%albuminterpret%" -T "ALBUMARTIST=%albuminterpret%" -T "COMPOSER=%composer%" %haslyrics%--tag-from-file=LYRICS="%lyricsfile%"%haslyrics% -T "DISCNUMBER=%cdnumber%" -T "TOTALDISCS=%totalcds%" -T "TOTALTRACKS=%numtracks%" %hascover%--picture="%coverfile%"%hascover% %source% -o %dest%
TOC of the extracted CD
     Track |   Start  |  Length  | Start sector | End sector
    ---------------------------------------------------------
        1  |  0:00.00 |  8:52.01 |         0    |    39900
        2  |  8:52.01 |  4:27.51 |     39901    |    59976
        3  | 13:19.52 |  7:29.07 |     59977    |    93658
        4  | 20:48.59 |  3:57.49 |     93659    |   111482
        5  | 24:46.33 |  3:31.45 |    111483    |   127352
        6  | 28:18.03 |  4:02.54 |    127353    |   145556
        7  | 32:20.57 |  4:18.04 |    145557    |   164910
        8  | 36:38.61 |  3:44.37 |    164911    |   181747
        9  | 40:23.23 |  5:06.60 |    181748    |   204757
       10  | 45:30.08 |  3:59.44 |    204758    |   222726
       11  | 49:29.52 |  6:06.13 |    222727    |   250189
       12  | 55:35.65 |  7:41.07 |    250190    |   284771
       13  | 63:16.72 |  3:19.72 |    284772    |   299768
       14  | 66:36.69 |  4:34.48 |    299769    |   320366
Track  1
     Filename E:\Front 242\Front 242 - [2016] - Hamburg 87. Official Version\01 - Intro , Agressiva.wav
     Pre-gap length  0:00:02.00
     Peak level 66.7 %
     Extraction speed 1.2 X
     Track quality 100.0 %
     Test CRC B8E75FC4
     Copy CRC B8E75FC4
     Accurately ripped (confidence 3)  [924FDB2D]  (AR v2)
     Copy OK
Track  2
     Filename E:\Front 242\Front 242 - [2016] - Hamburg 87. Official Version\02 - Rerun Time.wav
     Peak level 95.0 %
     Extraction speed 1.3 X
     Track quality 100.0 %
     Test CRC F90E9A27
     Copy CRC F90E9A27
     Accurately ripped (confidence 3)  [D882BBD2]  (AR v2)
     Copy OK
Track  3
     Filename E:\Front 242\Front 242 - [2016] - Hamburg 87. Official Version\03 - Masterhit.wav
     Peak level 97.5 %
     Extraction speed 1.5 X
     Track quality 100.0 %
     Test CRC 0636E5F5
     Copy CRC 0636E5F5
     Accurately ripped (confidence 3)  [FBEB4289]  (AR v2)
     Copy OK
Track  4
     Filename E:\Front 242\Front 242 - [2016] - Hamburg 87. Official Version\04 - No Shuffle.wav
     Peak level 93.0 %
     Extraction speed 1.5 X
     Track quality 100.0 %
     Test CRC 164545BF
     Copy CRC 164545BF
     Accurately ripped (confidence 3)  [A09F16FD]  (AR v2)
     Copy OK
Track  5
     Filename E:\Front 242\Front 242 - [2016] - Hamburg 87. Official Version\05 - Body To Body.wav
     Peak level 95.4 %
     Extraction speed 1.6 X
     Track quality 100.0 %
     Test CRC 64420136
     Copy CRC 64420136
     Accurately ripped (confidence 3)  [26513C5E]  (AR v2)
     Copy OK
Track  6
     Filename E:\Front 242\Front 242 - [2016] - Hamburg 87. Official Version\06 - Television Station.wav
     Peak level 75.6 %
     Extraction speed 1.6 X
     Track quality 100.0 %
     Test CRC 36F98582
     Copy CRC 36F98582
     Accurately ripped (confidence 3)  [D17334AA]  (AR v2)
     Copy OK
Track  7
     Filename E:\Front 242\Front 242 - [2016] - Hamburg 87. Official Version\07 - Don’t Crash.wav
     Peak level 93.3 %
     Extraction speed 1.7 X
     Track quality 100.0 %
     Test CRC 22ED9BA4
     Copy CRC 22ED9BA4
     Accurately ripped (confidence 3)  [C260593E]  (AR v2)
     Copy OK
Track  8
     Filename E:\Front 242\Front 242 - [2016] - Hamburg 87. Official Version\08 - Lovely Day.wav
     Peak level 95.9 %
     Extraction speed 1.8 X
     Track quality 100.0 %
     Test CRC 612B99A6
     Copy CRC 612B99A6
     Accurately ripped (confidence 3)  [BCF94E23]  (AR v2)
     Copy OK
Track  9
     Filename E:\Front 242\Front 242 - [2016] - Hamburg 87. Official Version\09 - Funkahdafi.wav
     Peak level 96.3 %
     Extraction speed 1.9 X
     Track quality 100.0 %
     Test CRC 27EEDADB
     Copy CRC 27EEDADB
     Accurately ripped (confidence 3)  [B2E22CDE]  (AR v2)
     Copy OK
Track 10
     Filename E:\Front 242\Front 242 - [2016] - Hamburg 87. Official Version\10 - Red Team.wav
     Peak level 90.1 %
     Extraction speed 1.9 X
     Track quality 100.0 %
     Test CRC C8CD766B
     Copy CRC C8CD766B
     Accurately ripped (confidence 3)  [2FEA7845]  (AR v2)
     Copy OK
Track 11
     Filename E:\Front 242\Front 242 - [2016] - Hamburg 87. Official Version\11 - Quite Unusual.wav
     Peak level 83.4 %
     Extraction speed 1.9 X
     Track quality 99.9 %
     Test CRC 323F4B5A
     Copy CRC 323F4B5A
     Accurately ripped (confidence 3)  [656A5890]  (AR v2)
     Copy OK
Track 12
     Filename E:\Front 242\Front 242 - [2016] - Hamburg 87. Official Version\12 - WYHIWYG.wav
     Peak level 95.8 %
     Extraction speed 2.2 X
     Track quality 100.0 %
     Test CRC D3676E23
     Copy CRC D3676E23
     Accurately ripped (confidence 3)  [42BCC8E0]  (AR v2)
     Copy OK
Track 13
     Filename E:\Front 242\Front 242 - [2016] - Hamburg 87. Official Version\13 - Slaughter.wav
     Peak level 86.8 %
     Extraction speed 2.1 X
     Track quality 100.0 %
     Test CRC A5AD7D79
     Copy CRC A5AD7D79
     Accurately ripped (confidence 3)  [0E009A21]  (AR v2)
     Copy OK
Track 14
     Filename E:\Front 242\Front 242 - [2016] - Hamburg 87. Official Version\14 - Commando Mix.wav
     Peak level 93.9 %
     Extraction speed 2.5 X
     Track quality 100.0 %
     Test CRC D39F40E4
     Copy CRC D39F40E4
     Accurately ripped (confidence 3)  [9B7CBAEC]  (AR v2)
     Copy OK
All tracks accurately ripped
No errors occurred
End of status report
---- CUETools DB Plugin V2.1.6
[CTDB TOCID: OmHD7O8rNfPIZg.kK9mBuvA.QwI-] found
Submit result: OmHD7O8rNfPIZg.kK9mBuvA.QwI- has been confirmed
Track | CTDB Status
  1   | (11/11) Accurately ripped
  2   | (11/11) Accurately ripped
  3   | (11/11) Accurately ripped
  4   | (11/11) Accurately ripped
  5   | (11/11) Accurately ripped
  6   | (11/11) Accurately ripped
  7   | (11/11) Accurately ripped
  8   | (11/11) Accurately ripped
  9   | (11/11) Accurately ripped
 10   | (11/11) Accurately ripped
 11   | (11/11) Accurately ripped
 12   | (11/11) Accurately ripped
 13   | (11/11) Accurately ripped
 14   | (11/11) Accurately ripped
==== Log checksum F96FF7B38752FCB5373EA14BF73551C7B0DEC79808E385294E833A57009919B2 ====
Код:
REM GENRE EBM
REM DATE 2016
REM DISCID C610AF0E
REM COMMENT "ExactAudioCopy v1.3"
PERFORMER "Front 242"
TITLE "Hamburg 87. Official Version"
FILE "01 - Intro , Agressiva.wav" WAVE
  TRACK 01 AUDIO
    TITLE "Intro / Agressiva"
    PERFORMER "Front 242"
    INDEX 01 00:00:00
FILE "02 - Rerun Time.wav" WAVE
  TRACK 02 AUDIO
    TITLE "Rerun Time"
    PERFORMER "Front 242"
    INDEX 01 00:00:00
FILE "03 - Masterhit.wav" WAVE
  TRACK 03 AUDIO
    TITLE "Masterhit"
    PERFORMER "Front 242"
    INDEX 01 00:00:00
FILE "04 - No Shuffle.wav" WAVE
  TRACK 04 AUDIO
    TITLE "No Shuffle"
    PERFORMER "Front 242"
    INDEX 01 00:00:00
FILE "05 - Body To Body.wav" WAVE
  TRACK 05 AUDIO
    TITLE "Body To Body"
    PERFORMER "Front 242"
    INDEX 01 00:00:00
FILE "06 - Television Station.wav" WAVE
  TRACK 06 AUDIO
    TITLE "Television Station"
    PERFORMER "Front 242"
    INDEX 01 00:00:00
FILE "07 - Dont Crash.wav" WAVE
  TRACK 07 AUDIO
    TITLE "Dont Crash"
    PERFORMER "Front 242"
    INDEX 01 00:00:00
FILE "08 - Lovely Day.wav" WAVE
  TRACK 08 AUDIO
    TITLE "Lovely Day"
    PERFORMER "Front 242"
    INDEX 01 00:00:00
FILE "09 - Funkahdafi.wav" WAVE
  TRACK 09 AUDIO
    TITLE "Funkahdafi"
    PERFORMER "Front 242"
    INDEX 01 00:00:00
FILE "10 - Red Team.wav" WAVE
  TRACK 10 AUDIO
    TITLE "Red Team"
    PERFORMER "Front 242"
    INDEX 01 00:00:00
FILE "11 - Quite Unusual.wav" WAVE
  TRACK 11 AUDIO
    TITLE "Quite Unusual"
    PERFORMER "Front 242"
    INDEX 01 00:00:00
FILE "12 - WYHIWYG.wav" WAVE
  TRACK 12 AUDIO
    TITLE "WYHIWYG"
    PERFORMER "Front 242"
    INDEX 01 00:00:00
FILE "13 - Slaughter.wav" WAVE
  TRACK 13 AUDIO
    TITLE "Slaughter"
    PERFORMER "Front 242"
    INDEX 01 00:00:00
FILE "14 - Commando Mix.wav" WAVE
  TRACK 14 AUDIO
    TITLE "Commando Mix"
    PERFORMER "Front 242"
    INDEX 01 00:00:00
Правила, инструкции, FAQ!!!
Торрент  Добавлен [26 июн 2020, 20:58] Скачать торрент Магнет ссылка
Скачать торрент
[ Размер 21.32 КБ / Просмотров 10 ]

Статус
Проверен 
 
Размер  930.1 МБ
Приватный: Нет (DHT включён)
.torrent скачан  0
 


     Отправить личное сообщение
   
Страница 1 из 1
Показать сообщения за:  Поле сортировки  
Начать новую тему Ответить на тему


Сейчас этот форум просматривают: нет зарегистрированных пользователей и гости: 0


Вы не можете начинать темы
Вы не можете отвечать на сообщения
Вы не можете редактировать свои сообщения
Вы не можете удалять свои сообщения
Вы не можете добавлять вложения

Перейти:  
cron