Начать новую тему Ответить на тему
Статистика раздачи
Размер: 432.95 МБ | Добавлен: 26 июн 2020, 17:01 | Скачали: 0
Сидеров: 0  [0 байт/сек]    Личеров: 0  [0 байт/сек]
Пред. тема | След. тема 

Автор
Сообщение

СообщениеДобавлено: 26 июн 2020, 17:01 

Ответить с цитатой 

Faderhead / Black Friday
Жанр: EBM
Страна-производитель диска: Germany
Год издания диска: 2010
Издатель (лейбл): L-Tracks Recordings
Номер по каталогу: LT 006
Аудио кодек: FLAC (*.flac)
Тип рипа: image+.cue
Битрейт аудио: lossless
Продолжительность: 55:54.24
Источник (релизер): Физический носитель
Наличие сканов в содержимом раздачи: да
Треклист:
01. Obnoxiated [2:09]
02. Escape From The Machine [4:43]
03. Hot Bath And A Cold Razor [3:41]
04. The Moth And The Fire [3:59]
05. Baby Firefly [3:34]
06. Destroy Improve Rebuild [4:28]
07. Aim To Misbehave [2:32]
08. Pussy Rules (Feat. Shaolyn) [3:24]
09. The Way To Fuck God [4:10]
10. Beautiful Freak [3:39]
11. The Bitch I Love To Hate (feat. Chris Pohl) [2:38]
12. Do You Know Who I Think I Am? (feat. Ted Phelps) [3:17]
13. Scumfucker [4:29]
14. Corpus Crisis [2:47]
15. Crashkid [4:49]
16. Regaining Unconsciousness [1:36]
Код:
Exact Audio Copy V0.99 prebeta 5 from 4. May 2009
Отчёт EAC об извлечении, выполненном 16. января 2011, 12:18
Faderhead / Black Friday
Дисковод: Optiarc DVD RW AD-7173A   Adapter: 0  ID: 0
Режим чтения                 : Достоверность
Использование точного потока : Да
Отключение кэша аудио        : Да
Использование указателей C2  : Нет
Коррекция смещения при чтении                     : 48
Способность читать области Lead-in и Lead-out     : Нет
Заполнение пропущенных сэмплов тишиной            : Да
Удаление блоков с тишиной в начале и конце        : Нет
При вычислениях CRC использовались нулевые сэмплы : Да
Интерфейс                                         : Установленный внешний ASPI-интерфейс
Выходной формат          : Пользовательский кодировщик
Выбранный битрейт        : 1024 kBit/s
Качество                 : Высокий
Добавление ID3-тэга      : Нет
Утилита сжатия           : C:\Program Files\Exact Audio Copy\flac.exe
Дополнительные параметры : -6 -V -T "ARTIST=%a" -T "TITLE=%t" -T "ALBUM=%g" -T "DATE=%y" -T "TRACKNUMBER=%n" -T "GENRE=%m" -T "COMMENT=%e" %s -o %d
TOC извлечённого CD
     Трек |   Старт  | Длительность | Начальный сектор | Конечный сектор
    ---------------------------------------------------------------------
       1  |  0:00.00 |    2:09.36   |           0      |       9710
       2  |  2:09.36 |    4:42.60   |        9711      |      30920
       3  |  6:52.21 |    3:40.72   |       30921      |      47492
       4  | 10:33.18 |    3:59.33   |       47493      |      65450
       5  | 14:32.51 |    3:33.51   |       65451      |      81476
       6  | 18:06.27 |    4:28.19   |       81477      |     101595
       7  | 22:34.46 |    2:31.50   |      101596      |     112970
       8  | 25:06.21 |    3:24.22   |      112971      |     128292
       9  | 28:30.43 |    4:10.10   |      128293      |     147052
      10  | 32:40.53 |    3:38.73   |      147053      |     163475
      11  | 36:19.51 |    2:37.46   |      163476      |     175296
      12  | 38:57.22 |    3:17.01   |      175297      |     190072
      13  | 42:14.23 |    4:28.57   |      190073      |     210229
      14  | 46:43.05 |    2:46.46   |      210230      |     222725
      15  | 49:29.51 |    4:48.49   |      222726      |     244374
      16  | 54:18.25 |    1:35.74   |      244375      |     251573
Характеристики диапазона извлечения и сообщения об ошибках
Выбранный диапазон
     Имя файла H:\СКАЧКА\FLAC\1 TORRENT\Faderhead - Black Friday.wav
     Пиковый уровень 98.8 %
     Качество диапазона 100.0 %
     CRC теста 8150772D
     CRC копии 8150772D
     Копирование... OK
Ошибок не произошло
AccurateRip: сводка
Трек  1  точное извлечение (доверие 1)  [0BDB92A4]
Трек  2  точное извлечение (доверие 1)  [C6EBEDA2]
Трек  3  точное извлечение (доверие 1)  [92154F91]
Трек  4  точное извлечение (доверие 1)  [C6361DD9]
Трек  5  точное извлечение (доверие 1)  [77796AFE]
Трек  6  точное извлечение (доверие 1)  [C0894A8B]
Трек  7  точное извлечение (доверие 1)  [92034A5C]
Трек  8  точное извлечение (доверие 1)  [CDD75452]
Трек  9  точное извлечение (доверие 1)  [261E3A9B]
Трек 10  точное извлечение (доверие 1)  [D09860EE]
Трек 11  точное извлечение (доверие 1)  [4596688B]
Трек 12  точное извлечение (доверие 1)  [23F13CD3]
Трек 13  точное извлечение (доверие 1)  [B7A91E7D]
Трек 14  точное извлечение (доверие 1)  [8192C70E]
Трек 15  точное извлечение (доверие 1)  [D51E5C9D]
Трек 16  точное извлечение (доверие 1)  [215D2F1C]
Все треки извлечены точно
Конец отчёта
Правила, инструкции, FAQ!!!
Торрент  Добавлен [26 июн 2020, 17:01] Скачать торрент Магнет ссылка
Скачать торрент
[ Размер 18.12 КБ / Просмотров 3 ]

Статус
Проверен 
 
Размер  432.95 МБ
Приватный: Нет (DHT включён)
.torrent скачан  0
 


     Отправить личное сообщение
   
Страница 1 из 1
Показать сообщения за:  Поле сортировки  
Начать новую тему Ответить на тему


Сейчас этот форум просматривают: нет зарегистрированных пользователей и гости: 0


Вы не можете начинать темы
Вы не можете отвечать на сообщения
Вы не можете редактировать свои сообщения
Вы не можете удалять свои сообщения
Вы не можете добавлять вложения

Перейти:  
cron