Начать новую тему Ответить на тему
Статистика раздачи
Размер: 459.21 МБ | Добавлен: 26 июн 2020, 20:28 | Скачали: 0
Сидеров: 0  [0 байт/сек]    Личеров: 0  [0 байт/сек]
Пред. тема | След. тема 

Автор
Сообщение

СообщениеДобавлено: 26 июн 2020, 20:28 

Ответить с цитатой 

MENTALLO & THE FIXER - Vengeance Is Mine
Жанр: EBM/Experimental
Год выпуска диска: 2001
Производитель диска: USA
Страна: USA
Аудио кодек: FLAC
Тип рипа: image+.cue
Битрейт аудио: lossless
Продолжительность: 71:56
Трэклист:
01 - Mentallo & the Fixer - Palestine
02 - Mentallo & the Fixer - The Way of All Flesh
03 - Mentallo & the Fixer - Death On Delicate Wings
04 - Mentallo & the Fixer - Outside Are The Dogs
05 - Mentallo & the Fixer - Like A Carcass Trodden Down
06 - Mentallo & the Fixer - Shining One
07 - Mentallo & the Fixer - Good For Nothing
08 - Mentallo & the Fixer - Judgement Executed ( In The Low Pain of Decision)
09 - Mentallo & the Fixer - All That Your Soul Desires
10 - Mentallo & the Fixer - Cherished and Suppressed
11 - Mentallo & the Fixer - untitled
Доп. информация:
Composed By, Programmed By, Written-By, Music By, Vocals, Mixed By, Edited By, Mastered By - Dwayne Dassing
Music By, Vocals, Mixed By - Gary Dassing
All Music Composed, Programmed and Conceived by at Proxima Studios.
All Music and Vocals Digitally Mixed and Rendered by at Polaris Studios.
Digitally Edited and Mastered at Polaris Studios.
Exact Audio Copy V0.99 prebeta 4 from 23. January 2008
EAC extraction logfile from 17. May 2009, 16:05
Mentallo & the Fixer / Vengeance Is Mine
Used drive : PIONEER DVD-RW DVR-215D Adapter: 2 ID: 0
Read mode : Secure
Utilize accurate stream : Yes
Defeat audio cache : Yes
Make use of C2 pointers : No
Read offset correction : 48
Overread into Lead-In and Lead-Out : No
Fill up missing offset samples with silence : Yes
Delete leading and trailing silent blocks : No
Null samples used in CRC calculations : Yes
Used interface : Installed external ASPI interface
Used output format : User Defined Encoder
Selected bitrate : 1024 kBit/s
Quality : High
Add ID3 tag : No
Command line compressor : C:\Program Files\Exact Audio Copy\Flac\flac.exe
Additional command line options : -8 -V -T "ARTIST=%a" -T "TITLE=%t" -T "ALBUM=%g" -T "DATE=%y" -T "TRACKNUMBER=%n" -T "GENRE=%m" -T "COMMENT=EAC FLAC -8" %s
TOC of the extracted CD
Track | Start | Length | Start sector | End sector
---------------------------------------------------------
1 | 0:00.00 | 6:15.38 | 0 | 28162
2 | 6:15.38 | 6:50.54 | 28163 | 58966
3 | 13:06.17 | 7:42.50 | 58967 | 93666
4 | 20:48.67 | 5:04.18 | 93667 | 116484
5 | 25:53.10 | 6:34.46 | 116485 | 146080
6 | 32:27.56 | 6:28.40 | 146081 | 175220
7 | 38:56.21 | 6:21.67 | 175221 | 203862
8 | 45:18.13 | 6:12.15 | 203863 | 231777
9 | 51:30.28 | 7:12.66 | 231778 | 264243
10 | 58:43.19 | 12:15.63 | 264244 | 319431
11 | 70:59.07 | 0:57.02 | 319432 | 323708
Range status and errors
Selected range
Filename D:\Download\Mentallo & The Fixer - Vengeance Is Mine 2001\Mentallo & the Fixer - Vengeance Is Mine.wav
Peak level 96.5 %
Range quality 100.0 %
Test CRC DE53D304
Copy CRC DE53D304
Copy OK
No errors occurred
AccurateRip summary
Track 1 cannot be verified as accurate (confidence 5) [EDC20ACD], AccurateRip returned [9F2902CA]
Track 2 cannot be verified as accurate (confidence 5) [C471EF9E], AccurateRip returned [4A07BA26]
Track 3 cannot be verified as accurate (confidence 5) [BC68C642], AccurateRip returned [58248F4E]
Track 4 cannot be verified as accurate (confidence 5) [C7475D4E], AccurateRip returned [3DA5F302]
Track 5 cannot be verified as accurate (confidence 5) [C8294E49], AccurateRip returned [880A9835]
Track 6 cannot be verified as accurate (confidence 5) [608BDCAE], AccurateRip returned [2F9A60E2]
Track 7 cannot be verified as accurate (confidence 5) [86B7A4D3], AccurateRip returned [8C750E11]
Track 8 cannot be verified as accurate (confidence 5) [7641EB5F], AccurateRip returned [01EC5EDF]
Track 9 cannot be verified as accurate (confidence 5) [276B6F18], AccurateRip returned [57C42603]
Track 10 cannot be verified as accurate (confidence 5) [AB82044B], AccurateRip returned [3EC13F27]
Track 11 cannot be verified as accurate (confidence 5) [CC00B0CE], AccurateRip returned [0D5FDE8F]
No tracks could be verified as accurate
You may have a different pressing from the one(s) in the database
End of status report
Правила, инструкции, FAQ!!!
Торрент  Добавлен [26 июн 2020, 20:28] Скачать торрент Магнет ссылка
Скачать торрент
[ Размер 37.05 КБ / Просмотров 10 ]

Статус
Проверен 
 
Размер  459.21 МБ
Приватный: Нет (DHT включён)
.torrent скачан  0
 


     Отправить личное сообщение
   
Страница 1 из 1
Показать сообщения за:  Поле сортировки  
Начать новую тему Ответить на тему


Сейчас этот форум просматривают: нет зарегистрированных пользователей и гости: 0


Вы не можете начинать темы
Вы не можете отвечать на сообщения
Вы не можете редактировать свои сообщения
Вы не можете удалять свои сообщения
Вы не можете добавлять вложения

Перейти:  
cron