Начать новую тему Ответить на тему
Статистика раздачи
Размер: 443.04 МБ | Добавлен: 26 июн 2020, 19:26 | Скачали: 0
Сидеров: 1  [0 байт/сек]    Личеров: 1  [0 байт/сек]
Пред. тема | След. тема 

Автор
Сообщение

СообщениеДобавлено: 26 июн 2020, 19:26 

Ответить с цитатой 

MENTALLO & THE FIXER - Algorythum
Жанр: EBM/Experimental
Год выпуска диска: 1999
Производитель диска: Germany
Страна: USA
Аудио кодек: FLAC
Тип рипа: image+.cue
Битрейт аудио: lossless
Продолжительность: 68:56
Трэклист:
01 - Mentallo & the Fixer - Intro
02 - Mentallo & the Fixer - Systematik Ruin
03 - Mentallo & the Fixer - Gamma Ray Antenna
04 - Mentallo & the Fixer - Proxima
05 - Mentallo & the Fixer - Unearthed
06 - Mentallo & the Fixer - Choice Flaw
07 - Mentallo & the Fixer - Carbon Based
08 - Mentallo & the Fixer - Stumbled
09 - Mentallo & the Fixer - Revelry
10 - Mentallo & the Fixer - Luminaries
11 - Mentallo & the Fixer - Resonant Echo
12 - Mentallo & the Fixer - Remnants Past
13 - Mentallo & the Fixer - Theme
Доп. информация:
All music and lyrix by Mentallo & The Fixer.
Except lyrix on trax 2&6 by Jonni Pyre.
All trax recorded, mixed and engineered by Gary Dassing at Proxima Base.
Guest artists: Chris Cline - Vocals, Drums 2,4,6,7,9,13, Samples 9, Acoustic Guitar 11.
Jonni Pyre - Vocals 2,6, Additional Sequensing Programming 12, Backing Vocal 4.
Johnny Bustamante - Vocal 7, Backing Vocal 2, Additional Synthesizer 4.
Todd Kreth - Bass & Electric Guitar 11.
Exact Audio Copy V0.99 prebeta 4 from 23. January 2008
EAC extraction logfile from 7. May 2009, 19:07
Mentallo & the Fixer / Algorythum
Used drive : PIONEER DVD-RW DVR-215D Adapter: 2 ID: 0
Read mode : Secure
Utilize accurate stream : Yes
Defeat audio cache : Yes
Make use of C2 pointers : No
Read offset correction : 48
Overread into Lead-In and Lead-Out : No
Fill up missing offset samples with silence : Yes
Delete leading and trailing silent blocks : No
Null samples used in CRC calculations : Yes
Used interface : Installed external ASPI interface
Used output format : User Defined Encoder
Selected bitrate : 1024 kBit/s
Quality : High
Add ID3 tag : No
Command line compressor : C:\Program Files\Exact Audio Copy\Flac\flac.exe
Additional command line options : -8 -V -T "ARTIST=%a" -T "TITLE=%t" -T "ALBUM=%g" -T "DATE=%y" -T "TRACKNUMBER=%n" -T "GENRE=%m" -T "COMMENT=EAC FLAC -8" %s
TOC of the extracted CD
Track | Start | Length | Start sector | End sector
---------------------------------------------------------
1 | 0:00.00 | 4:24.58 | 0 | 19857
2 | 4:24.58 | 5:47.59 | 19858 | 45941
3 | 10:12.42 | 2:54.16 | 45942 | 59007
4 | 13:06.58 | 6:18.00 | 59008 | 87357
5 | 19:24.58 | 5:17.11 | 87358 | 111143
6 | 24:41.69 | 6:27.57 | 111144 | 140225
7 | 31:09.51 | 7:05.42 | 140226 | 172142
8 | 38:15.18 | 8:23.36 | 172143 | 209903
9 | 46:38.54 | 5:49.25 | 209904 | 236103
10 | 52:28.04 | 4:31.36 | 236104 | 256464
11 | 56:59.40 | 3:53.62 | 256465 | 274001
12 | 60:53.27 | 6:33.30 | 274002 | 303506
13 | 67:26.57 | 1:29.30 | 303507 | 310211
Range status and errors
Selected range
Filename D:\Download\Mentallo & The Fixer - Algorythum 1999\Mentallo & the Fixer - Algorythum.wav
Peak level 96.6 %
Range quality 99.9 %
Test CRC CC4FE48A
Copy CRC CC4FE48A
Copy OK
No errors occurred
AccurateRip summary
Track 1 cannot be verified as accurate (confidence 7) [FA4DB3C8], AccurateRip returned [4D49B81B]
Track 2 cannot be verified as accurate (confidence 8) [752C8FB6], AccurateRip returned [FFA3CEDA]
Track 3 cannot be verified as accurate (confidence 7) [EE44DB40], AccurateRip returned [A7A65E4C]
Track 4 cannot be verified as accurate (confidence 7) [5F9672F6], AccurateRip returned [9A7274D5]
Track 5 cannot be verified as accurate (confidence 7) [4AEE54A5], AccurateRip returned [9CA6E8A9]
Track 6 cannot be verified as accurate (confidence 7) [16765429], AccurateRip returned [D968B95D]
Track 7 cannot be verified as accurate (confidence 8) [097A9496], AccurateRip returned [920525B6]
Track 8 cannot be verified as accurate (confidence 7) [7075D4B8], AccurateRip returned [9D1976F8]
Track 9 cannot be verified as accurate (confidence 7) [EDAF7A1C], AccurateRip returned [369DE282]
Track 10 cannot be verified as accurate (confidence 7) [F8B4BBA9], AccurateRip returned [C278293E]
Track 11 cannot be verified as accurate (confidence 7) [E3C61E83], AccurateRip returned [5B7F874A]
Track 12 cannot be verified as accurate (confidence 8) [08289B8D], AccurateRip returned [42CB1D18]
Track 13 cannot be verified as accurate (confidence 7) [DF9ACEE0], AccurateRip returned [6015D994]
No tracks could be verified as accurate
You may have a different pressing from the one(s) in the database
End of status report
Правила, инструкции, FAQ!!!
Торрент  Добавлен [26 июн 2020, 19:26] Скачать торрент Магнет ссылка
Скачать торрент
[ Размер 35.77 КБ / Просмотров 13 ]

Статус
Проверен 
 
Размер  443.04 МБ
Приватный: Нет (DHT включён)
.torrent скачан  0
 


     Отправить личное сообщение
   
Страница 1 из 1
Показать сообщения за:  Поле сортировки  
Начать новую тему Ответить на тему


Сейчас этот форум просматривают: нет зарегистрированных пользователей и гости: 0


Вы не можете начинать темы
Вы не можете отвечать на сообщения
Вы не можете редактировать свои сообщения
Вы не можете удалять свои сообщения
Вы не можете добавлять вложения

Перейти:  
cron