Начать новую тему Ответить на тему
Статистика раздачи
Размер: 324.82 МБ | Добавлен: 26 июн 2020, 20:19 | Скачали: 0
Сидеров: 0  [0 байт/сек]    Личеров: 0  [0 байт/сек]
Пред. тема | След. тема 

Автор
Сообщение

СообщениеДобавлено: 26 июн 2020, 20:19 

Ответить с цитатой 

Escalator / Antropologia
Жанр: EBM
Год издания: 1993
Издатель (лейбл): EMI Quint
Номер по каталогу: QUI 906022-2
Страна: Hungary
Аудиокодек: FLAC (*.flac)
Тип рипа: tracks+.cue
Битрейт аудио: lossless
Продолжительность: 00:52:40
Источник (релизер): What
Наличие сканов в содержимом раздачи: нет
Треклист:
01. Számítógépes Lovagok.............................. 03:59
02. Das Ist Verboten.................................. 03:41
03. Antropologia (Doppel Variation)................... 06:29
04. Arteria (Neurotikal Mix).......................... 06:22
05. Sohase Mondd...................................... 03:14
06. Analízis (Target Mix)............................. 05:48
07. Antropologia (Nekrophilia Mix).................... 04:40
08. Anatomia (Vertikal Mix)........................... 03:25
09. Amnezia (Vegetatív Mix)........................... 03:37
10. Időzített Bomba (Angina Pectoris)................. 03:09
11. Helicopter (Achtung!)............................. 04:10
12. Human Experiments................................. 04:05
Код:
Exact Audio Copy V0.99 prebeta 5 from 4. May 2009
EAC extraction logfile from 22. October 2010, 11:06
Escalator / Antropologia
Used drive  : PIONEER DVD-RW  DVR-108   Adapter: 0  ID: 1
Read mode               : Secure
Utilize accurate stream : Yes
Defeat audio cache      : Yes
Make use of C2 pointers : No
Read offset correction                      : 48
Overread into Lead-In and Lead-Out          : Yes
Fill up missing offset samples with silence : Yes
Delete leading and trailing silent blocks   : No
Null samples used in CRC calculations       : Yes
Used interface                              : Native Win32 interface for Win NT & 2000
Gap handling                                : Appended to previous track
Used output format              : User Defined Encoder
Selected bitrate                : 320 kBit/s
Quality                         : High
Add ID3 tag                     : No
Command line compressor         : F:\flac.exe
Additional command line options : -V -8 -T "artist=%a" -T "title=%t" -T "album=%g" -T "date=%y" -T "tracknumber=%n" -T "genre=%m" %s
TOC of the extracted CD
     Track |   Start  |  Length  | Start sector | End sector
    ---------------------------------------------------------
        1  |  0:00.00 |  3:59.27 |         0    |    17951
        2  |  3:59.27 |  3:41.00 |     17952    |    34526
        3  |  7:40.27 |  6:28.58 |     34527    |    63684
        4  | 14:09.10 |  6:22.35 |     63685    |    92369
        5  | 20:31.45 |  3:14.02 |     92370    |   106921
        6  | 23:45.47 |  5:48.23 |    106922    |   133044
        7  | 29:33.70 |  4:40.10 |    133045    |   154054
        8  | 34:14.05 |  3:24.67 |    154055    |   169421
        9  | 37:38.72 |  3:37.30 |    169422    |   185726
       10  | 41:16.27 |  3:09.10 |    185727    |   199911
       11  | 44:25.37 |  4:09.48 |    199912    |   218634
       12  | 48:35.10 |  4:05.32 |    218635    |   237041
Track  1
     Filename F:\Escalator - Antropologia (1993)\01 - Szбmнtуgйpes Lovagok.wav
     Pre-gap length  0:00:02.00
     Peak level 97.7 %
     Track quality 100.0 %
     Test CRC C94CD6AD
     Copy CRC C94CD6AD
     Track not present in AccurateRip database
     Copy OK
Track  2
     Filename F:\Escalator - Antropologia (1993)\02 - Das Ist Verboten.wav
     Pre-gap length  0:00:04.60
     Peak level 97.7 %
     Track quality 100.0 %
     Test CRC 3355BE7B
     Copy CRC 3355BE7B
     Track not present in AccurateRip database
     Copy OK
Track  3
     Filename F:\Escalator - Antropologia (1993)\03 - Antropologia (Doppel Variation).wav
     Pre-gap length  0:00:04.09
     Peak level 97.7 %
     Track quality 100.0 %
     Test CRC AD4B87FD
     Copy CRC AD4B87FD
     Track not present in AccurateRip database
     Copy OK
Track  4
     Filename F:\Escalator - Antropologia (1993)\04 - Arteria (Neurotikal Mix).wav
     Pre-gap length  0:00:02.24
     Peak level 97.7 %
     Track quality 100.0 %
     Test CRC B93D61F9
     Copy CRC B93D61F9
     Track not present in AccurateRip database
     Copy OK
Track  5
     Filename F:\Escalator - Antropologia (1993)\05 - Sohase Mondd.wav
     Pre-gap length  0:00:01.84
     Peak level 97.7 %
     Track quality 100.0 %
     Test CRC 08623940
     Copy CRC 08623940
     Track not present in AccurateRip database
     Copy OK
Track  6
     Filename F:\Escalator - Antropologia (1993)\06 - Analнzis (Target Mix).wav
     Pre-gap length  0:00:01.02
     Peak level 97.7 %
     Track quality 100.0 %
     Test CRC 764298D6
     Copy CRC 764298D6
     Track not present in AccurateRip database
     Copy OK
Track  7
     Filename F:\Escalator - Antropologia (1993)\07 - Antropologia (Nekrophilia Mix).wav
     Pre-gap length  0:00:01.37
     Peak level 97.7 %
     Track quality 100.0 %
     Test CRC F3776955
     Copy CRC F3776955
     Track not present in AccurateRip database
     Copy OK
Track  8
     Filename F:\Escalator - Antropologia (1993)\08 - Anatomia (Vertikal Mix).wav
     Pre-gap length  0:00:01.33
     Peak level 97.7 %
     Track quality 99.9 %
     Test CRC 7F73DE1A
     Copy CRC 7F73DE1A
     Track not present in AccurateRip database
     Copy OK
Track  9
     Filename F:\Escalator - Antropologia (1993)\09 - Amnezia (Vegetatнv Mix).wav
     Pre-gap length  0:00:01.53
     Peak level 97.7 %
     Track quality 100.0 %
     Test CRC 26DBC18A
     Copy CRC 26DBC18A
     Track not present in AccurateRip database
     Copy OK
Track 10
     Filename F:\Escalator - Antropologia (1993)\10 - Idхzнtett Bomba (Angina Pectoris).wav
     Pre-gap length  0:00:02.29
     Peak level 97.7 %
     Track quality 100.0 %
     Test CRC 52CA6DB6
     Copy CRC 52CA6DB6
     Track not present in AccurateRip database
     Copy OK
Track 11
     Filename F:\Escalator - Antropologia (1993)\11 - Helicopter (Achtung!).wav
     Pre-gap length  0:00:04.93
     Peak level 97.7 %
     Track quality 100.0 %
     Test CRC 648A7AAC
     Copy CRC 648A7AAC
     Track not present in AccurateRip database
     Copy OK
Track 12
     Filename F:\Escalator - Antropologia (1993)\12 - Human Experiments.wav
     Pre-gap length  0:00:03.84
     Peak level 97.7 %
     Track quality 100.0 %
     Test CRC 8327FC12
     Copy CRC 8327FC12
     Track not present in AccurateRip database
     Copy OK
None of the tracks are present in the AccurateRip database
No errors occurred
End of status report
Код:
REM GENRE EBM
REM DATE 1993
REM DISCID A20C580C
REM COMMENT "ExactAudioCopy v0.99pb5"
PERFORMER "Escalator"
TITLE "Antropologia"
FILE "01 - Szamitogepes Lovagok.wav" WAVE
  TRACK 01 AUDIO
    TITLE "Szamitogepes Lovagok"
    PERFORMER "Escalator"
    INDEX 01 00:00:00
FILE "02 - Das Ist Verboten.wav" WAVE
  TRACK 02 AUDIO
    TITLE "Das Ist Verboten"
    PERFORMER "Escalator"
    INDEX 01 00:00:00
FILE "03 - Antropologia (Doppel Variation).wav" WAVE
  TRACK 03 AUDIO
    TITLE "Antropologia (Doppel Variation)"
    PERFORMER "Escalator"
    INDEX 01 00:00:00
FILE "04 - Arteria (Neurotikal Mix).wav" WAVE
  TRACK 04 AUDIO
    TITLE "Arteria (Neurotikal Mix)"
    PERFORMER "Escalator"
    INDEX 01 00:00:00
FILE "05 - Sohase Mondd.wav" WAVE
  TRACK 05 AUDIO
    TITLE "Sohase Mondd"
    PERFORMER "Escalator"
    INDEX 01 00:00:00
FILE "06 - Analizis (Target Mix).wav" WAVE
  TRACK 06 AUDIO
    TITLE "Analizis (Target Mix)"
    PERFORMER "Escalator"
    INDEX 01 00:00:00
FILE "07 - Antropologia (Nekrophilia Mix).wav" WAVE
  TRACK 07 AUDIO
    TITLE "Antropologia (Nekrophilia Mix)"
    PERFORMER "Escalator"
    INDEX 01 00:00:00
FILE "08 - Anatomia (Vertikal Mix).wav" WAVE
  TRACK 08 AUDIO
    TITLE "Anatomia (Vertikal Mix)"
    PERFORMER "Escalator"
    INDEX 01 00:00:00
FILE "09 - Amnezia (Vegetativ Mix).wav" WAVE
  TRACK 09 AUDIO
    TITLE "Amnezia (Vegetativ Mix)"
    PERFORMER "Escalator"
    INDEX 01 00:00:00
FILE "10 - Idozitett Bomba (Angina Pectoris).wav" WAVE
  TRACK 10 AUDIO
    TITLE "Idozitett Bomba (Angina Pectoris)"
    PERFORMER "Escalator"
    INDEX 01 00:00:00
FILE "11 - Helicopter (Achtung!).wav" WAVE
  TRACK 11 AUDIO
    TITLE "Helicopter (Achtung!)"
    PERFORMER "Escalator"
    INDEX 01 00:00:00
FILE "12 - Human Experiments.wav" WAVE
  TRACK 12 AUDIO
    TITLE "Human Experiments"
    PERFORMER "Escalator"
    INDEX 01 00:00:00
Правила, инструкции, FAQ!!!
Торрент  Добавлен [26 июн 2020, 20:19] Скачать торрент Магнет ссылка
Скачать торрент
[ Размер 14.02 КБ / Просмотров 8 ]

Статус
Проверен 
 
Размер  324.82 МБ
Приватный: Нет (DHT включён)
.torrent скачан  0
 


     Отправить личное сообщение
   
Страница 1 из 1
Показать сообщения за:  Поле сортировки  
Начать новую тему Ответить на тему


Сейчас этот форум просматривают: нет зарегистрированных пользователей и гости: 0


Вы не можете начинать темы
Вы не можете отвечать на сообщения
Вы не можете редактировать свои сообщения
Вы не можете удалять свои сообщения
Вы не можете добавлять вложения

Перейти:  
cron