Начать новую тему Ответить на тему
Статистика раздачи
Размер: 974.82 МБ | Добавлен: 26 июн 2020, 17:05 | Скачали: 0
Сидеров: 0  [0 байт/сек]    Личеров: 0  [0 байт/сек]
Пред. тема | След. тема 

Автор
Сообщение

СообщениеДобавлено: 26 июн 2020, 17:05 

Ответить с цитатой 

Various Artists - Cyberl@b-The Ultimate Electronic-Crossover Compilation by Side-Line Mag
Жанр: EBM,Electronic
Год выпуска диска: 1998
Производитель диска: Belgium
Аудио кодек: FLAC
Тип рипа: image+.cue
Битрейт аудио: lossless
Продолжительность: 2h 13min 56sek 2CD (73min 53sek + 59min 03sek)
Трэклист:
CD 1
1. Kmfdm - Stray Bullet
2. Birmingham 6 - The Kill
3. Razed in Black - Overflow
4. Hexedene - Turn
5. Statemachine -Thermal Noise
6. Cleen - Believe (Edit)
7. The Dust Of Basement - Lullaby
8. (In)Ternal - Metamorposis
9. Hanzel Und Gretyl - Pleiadial Agenda
10. Mesh - I Don't Think They Know
11. Fiction B - Time For Me
12. Girls Under Glass - Changes
13. Spahn Ranch - Emboided
14. Implant - Slowly Mutating
15. Die Form - Rain Of Blood
CD 2
1. Front Line Assembly - Columbian Necktie
2. Funker Voght - Word Of Power (Highspeed Mix)
3. Pierrepoint - Kim
4. Dive - Dark Room
5. Blind Passengers - Still Alive
6. Inertia - Mind Energy (Radio Edit)
7. Evils Toy - Lucifer's Garden
8. Hyperdex-1-Sect - Les Amants
9. Neuroactive - Space Divider
10. Leather Strip - Under My Control
11. Plastic Noise Experience - City Of Lies
12. X Marks The Pedwalk - Turn Of The Tide (Ebb Tide Mix)
13. Regenerator - Wirklichkeit
Доп. информация: Диск мой. Сканы внутри.
Exact Audio Copy V0.99 prebeta 5 from 4. May 2009
Отчёт EAC об извлечении, выполненном 16. мая 2010, 17:56
Various Artists / Cyberl@b
Дисковод: TSSTcorpCD/DVDW SH-S182M Adapter: 0 ID: 0
Режим чтения : Достоверность
Использование точного потока : Да
Отключение кэша аудио : Да
Использование указателей C2 : Нет
Коррекция смещения при чтении : 6
Способность читать области Lead-in и Lead-out : Нет
Заполнение пропущенных сэмплов тишиной : Да
Удаление блоков с тишиной в начале и конце : Нет
При вычислениях CRC использовались нулевые сэмплы : Да
Интерфейс : Встроенный Win32-интерфейс для Win NT/2000
Выходной формат : Пользовательский кодировщик
Выбранный битрейт : 768 kBit/s
Качество : Высокий
Добавление ID3-тэга : Нет
Утилита сжатия : C:\Program Files\Exact Audio Copy\FLAC\FLAC.EXE
Дополнительные параметры : -6 -V -T "ARTIST=%a" -T "TITLE=%t" -T "ALBUM=%g" -T "DATE=%y" -T "TRACKNUMBER=%n" -T "GENRE=%m" -T "COMMENT=%e" %s -o %d
TOC извлечённого CD
Трек | Старт | Длительность | Начальный сектор | Конечный сектор
---------------------------------------------------------------------
1 | 0:00.00 | 5:30.60 | 0 | 24809
2 | 5:30.60 | 4:28.07 | 24810 | 44916
3 | 9:58.67 | 4:54.70 | 44917 | 67036
4 | 14:53.62 | 4:52.28 | 67037 | 88964
5 | 19:46.15 | 6:14.70 | 88965 | 117084
6 | 26:01.10 | 4:59.02 | 117085 | 139511
7 | 31:00.12 | 4:49.25 | 139512 | 161211
8 | 35:49.37 | 4:00.73 | 161212 | 179284
9 | 39:50.35 | 3:44.00 | 179285 | 196084
10 | 43:34.35 | 4:40.65 | 196085 | 217149
11 | 48:15.25 | 3:59.45 | 217150 | 235119
12 | 52:14.70 | 6:22.60 | 235120 | 263829
13 | 58:37.55 | 5:33.40 | 263830 | 288844
14 | 64:11.20 | 4:46.35 | 288845 | 310329
15 | 68:57.55 | 4:56.57 | 310330 | 332586
Характеристики диапазона извлечения и сообщения об ошибках
Выбранный диапазон
Имя файла I:\Code\1998 Cyberl@b\CD1\Various Artists - Cyberl@b.wav
Пиковый уровень 96.9 %
Качество диапазона 99.9 %
CRC теста 08457BE1
CRC копии 08457BE1
Копирование... OK
Ошибок не произошло
AccurateRip: сводка
Трек 1 точное извлечение (доверие 6) [D04B54F8]
Трек 2 точное извлечение (доверие 5) [93E21DE6]
Трек 3 точное извлечение (доверие 5) [ACA34996]
Трек 4 точное извлечение (доверие 6) [94D86B7F]
Трек 5 точное извлечение (доверие 6) [871BD2A9]
Трек 6 точное извлечение (доверие 6) [214922F7]
Трек 7 точное извлечение (доверие 6) [EF691FBE]
Трек 8 точное извлечение (доверие 5) [24AE8963]
Трек 9 точное извлечение (доверие 5) [2296F77A]
Трек 10 точное извлечение (доверие 5) [59246483]
Трек 11 точное извлечение (доверие 6) [77A5CFFD]
Трек 12 точное извлечение (доверие 6) [27E4D890]
Трек 13 точное извлечение (доверие 5) [B0404CF9]
Трек 14 точное извлечение (доверие 4) [2A98DEC4]
Трек 15 точное извлечение (доверие 6) [911F20CB]
Все треки извлечены точно
Конец отчёта
Exact Audio Copy V0.99 prebeta 5 from 4. May 2009
Отчёт EAC об извлечении, выполненном 16. мая 2010, 18:28
Various Artists / Cyberl@b
Дисковод: TSSTcorpCD/DVDW SH-S182M Adapter: 0 ID: 0
Режим чтения : Достоверность
Использование точного потока : Да
Отключение кэша аудио : Да
Использование указателей C2 : Нет
Коррекция смещения при чтении : 6
Способность читать области Lead-in и Lead-out : Нет
Заполнение пропущенных сэмплов тишиной : Да
Удаление блоков с тишиной в начале и конце : Нет
При вычислениях CRC использовались нулевые сэмплы : Да
Интерфейс : Встроенный Win32-интерфейс для Win NT/2000
Выходной формат : Пользовательский кодировщик
Выбранный битрейт : 768 kBit/s
Качество : Высокий
Добавление ID3-тэга : Нет
Утилита сжатия : C:\Program Files\Exact Audio Copy\FLAC\FLAC.EXE
Дополнительные параметры : -6 -V -T "ARTIST=%a" -T "TITLE=%t" -T "ALBUM=%g" -T "DATE=%y" -T "TRACKNUMBER=%n" -T "GENRE=%m" -T "COMMENT=%e" %s -o %d
TOC извлечённого CD
Трек | Старт | Длительность | Начальный сектор | Конечный сектор
---------------------------------------------------------------------
1 | 0:00.00 | 6:55.22 | 0 | 31146
2 | 6:55.22 | 4:43.40 | 31147 | 52411
3 | 11:38.62 | 4:56.53 | 52412 | 74664
4 | 16:35.40 | 4:10.47 | 74665 | 93461
5 | 20:46.12 | 5:04.08 | 93462 | 116269
6 | 25:50.20 | 3:50.52 | 116270 | 133571
7 | 29:40.72 | 4:03.38 | 133572 | 151834
8 | 33:44.35 | 5:07.60 | 151835 | 174919
9 | 38:52.20 | 3:31.47 | 174920 | 190791
10 | 42:23.67 | 4:24.55 | 190792 | 210646
11 | 46:48.47 | 4:07.08 | 210647 | 229179
12 | 50:55.55 | 4:22.00 | 229180 | 248829
13 | 55:17.55 | 3:46.45 | 248830 | 265824
Характеристики диапазона извлечения и сообщения об ошибках
Выбранный диапазон
Имя файла I:\Code\1998 Cyberl@b\CD2\Various Artists - Cyberl@b.wav
Пиковый уровень 96.5 %
Качество диапазона 100.0 %
CRC теста 5F51FBE2
CRC копии 5F51FBE2
Копирование... OK
Ошибок не произошло
AccurateRip: сводка
Трек 1 точное извлечение (доверие 3) [FDFCA167]
Трек 2 точное извлечение (доверие 4) [08E598C9]
Трек 3 точное извлечение (доверие 3) [DA76BA72]
Трек 4 точное извлечение (доверие 3) [1BD898FE]
Трек 5 точное извлечение (доверие 3) [F0FE0311]
Трек 6 точное извлечение (доверие 3) [6A103896]
Трек 7 точное извлечение (доверие 4) [9C8C8E21]
Трек 8 точное извлечение (доверие 4) [1C080AE4]
Трек 9 точное извлечение (доверие 4) [7D45D50C]
Трек 10 точное извлечение (доверие 4) [74949975]
Трек 11 точное извлечение (доверие 3) [158FD4B7]
Трек 12 точное извлечение (доверие 3) [DC8BCB44]
Трек 13 точное извлечение (доверие 4) [1A0F4A55]
Все треки извлечены точно
Конец отчёта
Правила, инструкции, FAQ!!!
Торрент  Добавлен [26 июн 2020, 17:05] Скачать торрент Магнет ссылка
Скачать торрент
[ Размер 20.23 КБ / Просмотров 12 ]

Статус
Проверен 
 
Размер  974.82 МБ
Приватный: Нет (DHT включён)
.torrent скачан  0
 


     Отправить личное сообщение
   
Страница 1 из 1
Показать сообщения за:  Поле сортировки  
Начать новую тему Ответить на тему


Сейчас этот форум просматривают: нет зарегистрированных пользователей и гости: 0


Вы не можете начинать темы
Вы не можете отвечать на сообщения
Вы не можете редактировать свои сообщения
Вы не можете удалять свои сообщения
Вы не можете добавлять вложения

Перейти:  
cron