Начать новую тему Ответить на тему
Статистика раздачи
Размер: 221.49 МБ | Добавлен: 26 июн 2020, 17:03 | Скачали: 0
Сидеров: 0  [0 байт/сек]    Личеров: 0  [0 байт/сек]
Пред. тема | След. тема 

Автор
Сообщение

СообщениеДобавлено: 26 июн 2020, 17:03 

Ответить с цитатой 

Insekt - In The Eye
Жанр: EBM,Electronic
Год выпуска диска: 1993
Производитель диска: US
Аудио кодек: FLAC
Тип рипа: image+.cue
Битрейт аудио: lossless
Продолжительность: 32min 54sek
Трэклист:
1. Digging In Your Soul
2. In The Eye
3. Leave Me Alone
4. I Love To Hate Myself
5. Dreams In Pockets
6. Insect Arianism
7. F. F. Session
8. Evil Train
9. 1001
10. ...
Доп. информация: Диск с моей полки
Exact Audio Copy V0.99 prebeta 5 from 4. May 2009
Отчёт EAC об извлечении, выполненном 26. сентября 2009, 22:43
Insekt / In The Eye
Дисковод: TSSTcorpCD/DVDW SH-S182M Adapter: 0 ID: 0
Режим чтения : Достоверность
Использование точного потока : Да
Отключение кэша аудио : Да
Использование указателей C2 : Нет
Коррекция смещения при чтении : 6
Способность читать области Lead-in и Lead-out : Нет
Заполнение пропущенных сэмплов тишиной : Да
Удаление блоков с тишиной в начале и конце : Нет
При вычислениях CRC использовались нулевые сэмплы : Да
Интерфейс : Встроенный Win32-интерфейс для Win NT/2000
Выходной формат : Пользовательский кодировщик
Выбранный битрейт : 768 kBit/s
Качество : Высокий
Добавление ID3-тэга : Нет
Утилита сжатия : C:\Program Files\Exact Audio Copy\FLAC\FLAC.EXE
Дополнительные параметры : -6 -V -T "ARTIST=%a" -T "TITLE=%t" -T "ALBUM=%g" -T "DATE=%y" -T "TRACKNUMBER=%n" -T "GENRE=%m" -T "COMMENT=%e" %s -o %d
TOC извлечённого CD
Трек | Старт | Длительность | Начальный сектор | Конечный сектор
---------------------------------------------------------------------
1 | 0:00.65 | 3:56.40 | 65 | 17804
2 | 3:57.30 | 2:56.40 | 17805 | 31044
3 | 6:53.70 | 3:02.32 | 31045 | 44726
4 | 9:56.27 | 3:07.38 | 44727 | 58789
5 | 13:03.65 | 4:08.60 | 58790 | 77449
6 | 17:12.50 | 2:35.10 | 77450 | 89084
7 | 19:47.60 | 4:45.67 | 89085 | 110526
8 | 24:33.52 | 4:06.05 | 110527 | 128981
9 | 28:39.57 | 3:40.70 | 128982 | 145551
10 | 32:20.52 | 0:32.05 | 145552 | 147956
Характеристики диапазона извлечения и сообщения об ошибках
Выбранный диапазон
Имя файла C:\Documents and Settings\User\Мои документы\Code\1993 Insekt In The Eye\Insekt - In The Eye.wav
Пиковый уровень 100.0 %
Качество диапазона 100.0 %
CRC теста BA21853E
CRC копии BA21853E
Копирование... OK
Ошибок не произошло
AccurateRip: сводка
Трек 1 точное извлечение (доверие 8) [CCC406CE]
Трек 2 точное извлечение (доверие 8) [8CD91491]
Трек 3 точное извлечение (доверие 8) [F0B51075]
Трек 4 точное извлечение (доверие 8) [598CBE66]
Трек 5 точное извлечение (доверие 8) [BF302344]
Трек 6 точное извлечение (доверие 8) [E94D0FB0]
Трек 7 точное извлечение (доверие 8) [9B6C1423]
Трек 8 точное извлечение (доверие 8) [CFDE6740]
Трек 9 точное извлечение (доверие 8) [723C87B0]
Трек 10 точное извлечение (доверие 8) [F5D0F603]
Все треки извлечены точно
Конец отчёта
Правила, инструкции, FAQ!!!
Торрент  Добавлен [26 июн 2020, 17:03] Скачать торрент Магнет ссылка
Скачать торрент
[ Размер 18.04 КБ / Просмотров 4 ]

Статус
Проверен 
 
Размер  221.49 МБ
Приватный: Нет (DHT включён)
.torrent скачан  0
 


     Отправить личное сообщение
   
Страница 1 из 1
Показать сообщения за:  Поле сортировки  
Начать новую тему Ответить на тему


Сейчас этот форум просматривают: нет зарегистрированных пользователей и гости: 0


Вы не можете начинать темы
Вы не можете отвечать на сообщения
Вы не можете редактировать свои сообщения
Вы не можете удалять свои сообщения
Вы не можете добавлять вложения

Перейти:  
cron