Начать новую тему Ответить на тему
Статистика раздачи
Размер: 301.32 МБ | Добавлен: 26 июн 2020, 17:03 | Скачали: 0
Сидеров: 0  [0 байт/сек]    Личеров: 0  [0 байт/сек]
Пред. тема | След. тема 

Автор
Сообщение

СообщениеДобавлено: 26 июн 2020, 17:03 

Ответить с цитатой 

Insekt - Dreamscape
Жанр: EBM,Electronic
Год выпуска диска: 1992
Производитель диска: US
Аудио кодек: FLAC
Тип рипа: image+.cue
Битрейт аудио: lossless
Продолжительность: 44min 57sek
Трэклист:
1. Torture (Rhythm Pain)
2. Scum
3. Cocaine
4. The Punisher
5. Dreamscape
6. Spiritual Experience
7. Deceptions
8. Games
9. Knock Me Down
10. Pressure
11. Mask
Доп. информация: Диск с моей полки
Exact Audio Copy V0.99 prebeta 5 from 4. May 2009
Отчёт EAC об извлечении, выполненном 19. сентября 2009, 19:25
Insekt / Dreamscape
Дисковод: TSSTcorpCD/DVDW SH-S182M Adapter: 0 ID: 0
Режим чтения : Достоверность
Использование точного потока : Да
Отключение кэша аудио : Да
Использование указателей C2 : Нет
Коррекция смещения при чтении : 6
Способность читать области Lead-in и Lead-out : Нет
Заполнение пропущенных сэмплов тишиной : Да
Удаление блоков с тишиной в начале и конце : Нет
При вычислениях CRC использовались нулевые сэмплы : Да
Интерфейс : Встроенный Win32-интерфейс для Win NT/2000
Выходной формат : Пользовательский кодировщик
Выбранный битрейт : 768 kBit/s
Качество : Высокий
Добавление ID3-тэга : Нет
Утилита сжатия : C:\Program Files\Exact Audio Copy\FLAC\FLAC.EXE
Дополнительные параметры : -6 -V -T "ARTIST=%a" -T "TITLE=%t" -T "ALBUM=%g" -T "DATE=%y" -T "TRACKNUMBER=%n" -T "GENRE=%m" -T "COMMENT=%e" %s -o %d
TOC извлечённого CD
Трек | Старт | Длительность | Начальный сектор | Конечный сектор
---------------------------------------------------------------------
1 | 0:00.25 | 2:41.07 | 25 | 12106
2 | 2:41.32 | 4:12.68 | 12107 | 31074
3 | 6:54.25 | 5:08.67 | 31075 | 54241
4 | 12:03.17 | 3:33.48 | 54242 | 70264
5 | 15:36.65 | 5:03.35 | 70265 | 93024
6 | 20:40.25 | 3:07.55 | 93025 | 107104
7 | 23:48.05 | 5:11.52 | 107105 | 130481
8 | 28:59.57 | 3:26.60 | 130482 | 145991
9 | 32:26.42 | 3:06.73 | 145992 | 160014
10 | 35:33.40 | 4:40.50 | 160015 | 181064
11 | 40:14.15 | 4:41.37 | 181065 | 202176
Характеристики диапазона извлечения и сообщения об ошибках
Выбранный диапазон
Имя файла I:\Моя музыка\v set\1992 Insekt Dreamscape\Insekt - Dreamscape.wav
Пиковый уровень 82.8 %
Качество диапазона 99.9 %
CRC теста 2E24C8CD
CRC копии 2E24C8CD
Копирование... OK
Ошибок не произошло
AccurateRip: сводка
Трек 1 точное извлечение (доверие 4) [DE609FFA]
Трек 2 точное извлечение (доверие 4) [AD4DCE4B]
Трек 3 точное извлечение (доверие 4) [2ED233F0]
Трек 4 точное извлечение (доверие 4) [130823F9]
Трек 5 точное извлечение (доверие 4) [221759DE]
Трек 6 точное извлечение (доверие 4) [E27B00EE]
Трек 7 точное извлечение (доверие 4) [07E4CD23]
Трек 8 точное извлечение (доверие 4) [58F1A386]
Трек 9 точное извлечение (доверие 3) [AD2BDDBC]
Трек 10 точное извлечение (доверие 3) [9EF50740]
Трек 11 точное извлечение (доверие 4) [616E59CB]
Все треки извлечены точно
Конец отчёта
Правила, инструкции, FAQ!!!
Торрент  Добавлен [26 июн 2020, 17:03] Скачать торрент Магнет ссылка
Скачать торрент
[ Размер 12.52 КБ / Просмотров 4 ]

Статус
Проверен 
 
Размер  301.32 МБ
Приватный: Нет (DHT включён)
.torrent скачан  0
 


     Отправить личное сообщение
   
Страница 1 из 1
Показать сообщения за:  Поле сортировки  
Начать новую тему Ответить на тему


Сейчас этот форум просматривают: нет зарегистрированных пользователей и гости: 0


Вы не можете начинать темы
Вы не можете отвечать на сообщения
Вы не можете редактировать свои сообщения
Вы не можете удалять свои сообщения
Вы не можете добавлять вложения

Перейти:  
cron