Начать новую тему Ответить на тему
Статистика раздачи
Размер: 469.93 МБ | Добавлен: 26 июн 2020, 17:26 | Скачали: 0
Сидеров: 0  [0 байт/сек]    Личеров: 0  [0 байт/сек]
Пред. тема | След. тема 

Автор
Сообщение

СообщениеДобавлено: 26 июн 2020, 17:26 

Ответить с цитатой 

Front 242 - 05:22:09:12 Off
Жанр: EBM, Electronic Ambient
Год выпуска диска: 1993
Производитель диска: Belgium
Аудио кодек: APE
Тип рипа: image+.cue
Битрейт аудио: lossless
Продолжительность: 71'19''
Трэклист:
01-Animal (Cage)
02-Animal (Gate)
03-Animal (Guide)
04-Modern Angel
05-Junkdrome
06-Serial Killers Don't Kill Their Girlfriend
07-Skin (Fur Coat)
08-GenEcide
09-Crushed
10-OffEND
11-Animal (Zoo)
12-Serial Killers Don't Kill Their Boyfriend
13-Happiness (More Angels)
14-Crushed (Obscene)
15-Melt (Again)
16-Speed Angels
Audiochecker
Доп. информация: Started at: Вторник, 08. 09. 2009. - 0:09.59
1 file found
1 -===- F:\SDR\FRONT 242\1993 - 05-22-09-12 Off\Front 242 - 05 22 09 12 OFF.ape
Extracted successfully
Conclusion: this track is CDDA with probability 100%
Tempfile successfully deleted.
Finished at: Вторник, 08. 09. 2009. - 0:17.30 (operation time: 0:07.30)
EAC
Exact Audio Copy V0.99 prebeta 4 from 23. January 2008
Отчёт EAC об извлечении, выполненном 13. марта 2009, 4:13
Front 242 / 05:22:09:12 OFF
Дисковод: ASUS DRW-1814BLT Adapter: 3 ID: 0
Режим чтения : Достоверность
Использование точного потока : Да
Отключение кэша аудио : Да
Использование указателей C2 : Нет
Коррекция смещения при чтении : 6
Способность читать области Lead-in и Lead-out : Нет
Заполнение пропущенных сэмплов тишиной : Да
Удаление блоков с тишиной в начале и конце : Нет
При вычислениях CRC использовались нулевые сэмплы : Да
Интерфейс : Установленный внешний ASPI-интерфейс
Выходной формат : Внутренние WAV-операции
Формат сэмплов : 44.100 Гц; 16 бит; стерео
TOC извлечённого CD
Трек | Старт | Длительность | Начальный сектор | Конечный сектор
---------------------------------------------------------------------
1 | 0:00.00 | 3:00.22 | 0 | 13521
2 | 3:00.22 | 3:02.25 | 13522 | 27196
3 | 6:02.47 | 2:44.18 | 27197 | 39514
4 | 8:46.65 | 4:12.50 | 39515 | 58464
5 | 12:59.40 | 7:35.30 | 58465 | 92619
6 | 20:34.70 | 5:58.45 | 92620 | 119514
7 | 26:33.40 | 3:59.70 | 119515 | 137509
8 | 30:33.35 | 6:53.27 | 137510 | 168511
9 | 37:26.62 | 6:13.28 | 168512 | 196514
10 | 43:40.15 | 1:38.35 | 196515 | 203899
11 | 45:18.50 | 4:02.62 | 203900 | 222111
12 | 49:21.37 | 3:09.05 | 222112 | 236291
13 | 52:30.42 | 6:38.10 | 236292 | 266151
14 | 59:08.52 | 4:11.25 | 266152 | 285001
15 | 63:20.02 | 5:06.35 | 285002 | 307986
16 | 68:26.37 | 2:52.58 | 307987 | 320944
Характеристики диапазона извлечения и сообщения об ошибках
Выбранный диапазон
Имя файла D:\Музыка\Front 242\1993 - OFF\Front 242 - 05 22 09 12 OFF.wav
Пиковый уровень 97.7 %
Качество диапазона 100.0 %
CRC копии 1976D94B
Копирование... OK
Ошибок не произошло
Конец отчёта
Правила, инструкции, FAQ!!!
Торрент  Добавлен [26 июн 2020, 17:26] Скачать торрент Магнет ссылка
Скачать торрент
[ Размер 18.96 КБ / Просмотров 15 ]

Статус
Проверен 
 
Размер  469.93 МБ
Приватный: Нет (DHT включён)
.torrent скачан  0
 


     Отправить личное сообщение
   
Страница 1 из 1
Показать сообщения за:  Поле сортировки  
Начать новую тему Ответить на тему


Сейчас этот форум просматривают: нет зарегистрированных пользователей и гости: 0


Вы не можете начинать темы
Вы не можете отвечать на сообщения
Вы не можете редактировать свои сообщения
Вы не можете удалять свои сообщения
Вы не можете добавлять вложения

Перейти:  
cron