Начать новую тему Ответить на тему
Статистика раздачи
Размер: 484.55 МБ | Добавлен: 26 июн 2020, 17:22 | Скачали: 0
Сидеров: 0  [0 байт/сек]    Личеров: 0  [0 байт/сек]
Пред. тема | След. тема 

Автор
Сообщение

СообщениеДобавлено: 26 июн 2020, 17:22 

Ответить с цитатой 

Yavin 4 - Otherworld Technologies
Жанр: EBM, Electro
Год выпуска диска: 2005
Производитель диска: США
Аудио кодек: APE
Тип рипа: image+.cue
Битрейт аудио: lossless
Продолжительность: 01:05:58
Трэклист:
01.Republic Of Voices
02.Solid Extension
03.Traveller
04.Dream Operator
05.Red 5
06.Plasma Sleep
07.Alien Intruder
08.Liberate Tutemae (Ex Inferis)
09.Sacred Air (2004 A.D.)
10.We Have Electric Sheep
11.Yavin's Orbit
12.Solid Extension retro mix by Pzychobitch
13.Traveller virtual server mix by DJ RAM
14.Alien Intruder onboard remix by Cruciform Injection
15.Sacred Air future-pop mix by Yavin 4
Код:
Exact Audio Copy V0.99 prebeta 4 from 23. January 2008
Отчёт EAC об извлечении, выполненном 21. июля 2009, 18:19
Yavin 4 / Otherworld Technologies
Дисковод: Optiarc DVD RW AD-7201S   Adapter: 1  ID: 1
Режим чтения                 : Достоверность
Использование точного потока : Да
Отключение кэша аудио        : Да
Использование указателей C2  : Нет
Коррекция смещения при чтении                     : 48
Способность читать области Lead-in и Lead-out     : Нет
Заполнение пропущенных сэмплов тишиной            : Да
Удаление блоков с тишиной в начале и конце        : Нет
При вычислениях CRC использовались нулевые сэмплы : Да
Интерфейс                                         : Установленный внешний ASPI-интерфейс
Выходной формат : Внутренние WAV-операции
Формат сэмплов  : 44.100 Гц; 16 бит; стерео
TOC извлечённого CD
     Трек |   Старт  | Длительность | Начальный сектор | Конечный сектор
    ---------------------------------------------------------------------
       1  |  0:00.00 |    3:48.60   |           0      |      17159
       2  |  3:48.60 |    4:02.62   |       17160      |      35371
       3  |  7:51.47 |    4:01.05   |       35372      |      53451
       4  | 11:52.52 |    4:48.55   |       53452      |      75106
       5  | 16:41.32 |    3:42.61   |       75107      |      91817
       6  | 20:24.18 |    2:00.39   |       91818      |     100856
       7  | 22:24.57 |    4:13.38   |      100857      |     119869
       8  | 26:38.20 |    4:34.41   |      119870      |     140460
       9  | 31:12.61 |    3:45.13   |      140461      |     157348
      10  | 34:57.74 |    4:21.17   |      157349      |     176940
      11  | 39:19.16 |    4:44.54   |      176941      |     198294
      12  | 44:03.70 |    4:52.06   |      198295      |     220200
      13  | 48:56.01 |    4:59.30   |      220201      |     242655
      14  | 53:55.31 |    3:56.61   |      242656      |     260416
      15  | 57:52.17 |    8:04.00   |      260417      |     296716
Характеристики диапазона извлечения и сообщения об ошибках
Выбранный диапазон
     Имя файла D:\Documents and Settings\Rodexx\Рабочий стол\Yavin 4 - Otherworld Technologies\Yavin 4 - Otherworld Technologies.wav
     Пиковый уровень 100.0 %
     Качество диапазона 99.9 %
     CRC копии 1512F4EA
     Копирование... OK
Ошибок не произошло
Конец отчёта
 
Label: Negative Gain Productions
Catalog#: NGP80501
Format: CD
Country: US
Released: 15 Jan 2005
Genre: Electronic
Style: EBM, Electro, Drum n Bass
.

Доп. информация: YAVIN4 - немецкий Electro/EBM/Techno-Industrial проект, в составе которого реализуют свои творческие амбиции клавишник группы T.O.Y Oliver Taranczewski и Stefan Voigt из future pop команды PLASTIC. Сыгрались они хорошо, ибо выдают на гора очень бодрую, холодную, футуристическую и современно звучащую электронную музыку с агрессивными либо меланхоличными мужскими вокалами, роботизированными вокодерами и сэмплами с красивым женским пением. Если проводить параллели, то на память сразу приходит музыка групп PROTECH, EQUINOX (два замороженных сайд-проекта FRONT LINE ASSEMBLY), MIND.IN.A.BOX, DISTRAUB, NERVE FILTER, MASSIV IN MENSCH и T.O.Y. В ритмическом плане мы в основном имеем дело со стремительными, жесткими и очень техничными techno-Industrial построениями ("Solid Extension", "Treveller").
Правила, инструкции, FAQ!!!
Торрент  Добавлен [26 июн 2020, 17:22] Скачать торрент Магнет ссылка
Скачать торрент
[ Размер 19.7 КБ / Просмотров 10 ]

Статус
Проверен 
 
Размер  484.55 МБ
Приватный: Нет (DHT включён)
.torrent скачан  0
 


     Отправить личное сообщение
   
Страница 1 из 1
Показать сообщения за:  Поле сортировки  
Начать новую тему Ответить на тему


Сейчас этот форум просматривают: нет зарегистрированных пользователей и гости: 0


Вы не можете начинать темы
Вы не можете отвечать на сообщения
Вы не можете редактировать свои сообщения
Вы не можете удалять свои сообщения
Вы не можете добавлять вложения

Перейти:  
cron