Начать новую тему Ответить на тему
Статистика раздачи
Размер: 266.24 МБ | Добавлен: 26 июн 2020, 20:40 | Скачали: 0
Сидеров: 0  [0 байт/сек]    Личеров: 0  [0 байт/сек]
Пред. тема | След. тема 

Автор
Сообщение

СообщениеДобавлено: 26 июн 2020, 20:40 

Ответить с цитатой 

Vomito Negro / Human
Жанр: EBM, Electro
Страна-производитель диска: Belgium
Год издания диска: 1990
Издатель (лейбл): KK Records
Номер по каталогу: KK 050
Страна: Belgium
Аудио кодек: FLAC (*.flac)
Тип рипа: tracks+.cue
Битрейт аудио: lossless
Продолжительность: 00:47:45
Источник (релизер): what (ruczak)
Наличие сканов в содержимом раздачи: нет
Треклист:
01. Raise Your Power (04:12)
02. Give Him Coke (02:43)
03. In Strict Tempo (Part 2) (03:51)
04. Black Power (03:49)
05. The Citydump (03:05)
06. In Strict Tempo (Part 3) (04:33)
07. Meeting Eyes (04:10)
08. The Future (03:54)
09. Escape (04:08)
10. Human (05:58)
11. The Needle (04:18)
12. Feel The Heat (03:00)
Код:
EAC extraction logfile from 22. March 2010, 19:01 for CD
Vomito Negro / Human
Used drive  : TSSTcorpCDDVDW TS-L633A   Adapter: 1  ID: 0
Read mode   : Secure with NO C2, accurate stream, disable cache
Read offset correction : 6
Overread into Lead-In and Lead-Out : No
Used output format : C:\Program Files\FLAC\flac.exe   (User Defined Encoder)
                     128 kBit/s
                     Additional command line options : -V -8 -T "artist=%a" -T "title=%t" -T "album=%g" -T "date=%y" -T "tracknumber=%n" -T "genre=%m" %s
Other options      :
    Fill up missing offset samples with silence : Yes
    Delete leading and trailing silent blocks : No
    Installed external ASPI interface
Track  1
     Filename G:\EACrip\Vomito Negro-Human\01-Raise Your Power.wav
     Pre-gap length  0:00:02.00
     Peak level 73.2 %
     Track quality 100.0 %
     Test CRC 99A2EB5B
     Copy CRC 99A2EB5B
     Copy OK
Track  2
     Filename G:\EACrip\Vomito Negro-Human\02-Give Him Coke.wav
     Peak level 79.5 %
     Track quality 100.0 %
     Test CRC 036FC689
     Copy CRC 036FC689
     Copy OK
Track  3
     Filename G:\EACrip\Vomito Negro-Human\03-In Strict Tempo.wav
     Pre-gap length  0:02:43.50
     Peak level 75.6 %
     Track quality 100.0 %
     Test CRC F9F24AF2
     Copy CRC F9F24AF2
     Copy OK
Track  4
     Filename G:\EACrip\Vomito Negro-Human\04-Black Power.wav
     Pre-gap length  0:06:40.20
     Peak level 81.7 %
     Track quality 100.0 %
     Test CRC 263BCDB4
     Copy CRC 263BCDB4
     Copy OK
Track  5
     Filename G:\EACrip\Vomito Negro-Human\05-The Citydumo.wav
     Pre-gap length  0:10:29.13
     Peak level 52.0 %
     Track quality 99.9 %
     Test CRC E2367340
     Copy CRC E2367340
     Copy OK
Track  6
     Filename G:\EACrip\Vomito Negro-Human\06-In Strict Tempo (Part Ii).wav
     Pre-gap length  0:13:34.40
     Peak level 85.6 %
     Track quality 100.0 %
     Test CRC 6C817F89
     Copy CRC 6C817F89
     Copy OK
Track  7
     Filename G:\EACrip\Vomito Negro-Human\07-Meeting Eyes.wav
     Pre-gap length  0:18:07.06
     Peak level 60.9 %
     Track quality 100.0 %
     Test CRC 6C4D1CCE
     Copy CRC 6C4D1CCE
     Copy OK
Track  8
     Filename G:\EACrip\Vomito Negro-Human\08-The Future.wav
     Pre-gap length  0:22:17.70
     Peak level 71.1 %
     Track quality 99.9 %
     Test CRC 85C140F8
     Copy CRC 85C140F8
     Copy OK
Track  9
     Filename G:\EACrip\Vomito Negro-Human\09-Escape.wav
     Pre-gap length  0:26:11.33
     Peak level 72.1 %
     Track quality 100.0 %
     Test CRC EC499185
     Copy CRC EC499185
     Copy OK
Track 10
     Filename G:\EACrip\Vomito Negro-Human\10-Human.wav
     Pre-gap length  0:30:19.33
     Peak level 92.3 %
     Track quality 99.9 %
     Test CRC 8E71BC67
     Copy CRC 8E71BC67
     Copy OK
Track 11
     Filename G:\EACrip\Vomito Negro-Human\11-The Needle.wav
     Pre-gap length  0:36:16.93
     Peak level 63.8 %
     Track quality 100.0 %
     Test CRC 29BE640C
     Copy CRC 29BE640C
     Copy OK
Track 12
     Filename G:\EACrip\Vomito Negro-Human\12-Fell The Heat.wav
     Pre-gap length  0:40:32.90
     Peak level 81.1 %
     Track quality 100.0 %
     Test CRC 00661681
     Copy CRC 00661681
     Copy OK
No errors occured
End of status report
Код:
REM GENRE EBM
REM DATE 1990
REM DISCID A00B310C
REM COMMENT "ExactAudioCopy v0.95b3"
PERFORMER "Vomito Negro"
TITLE "Human"
FILE "Vomito Negro-Human\01-Raise Your Power.wav" WAVE
  TRACK 01 AUDIO
    TITLE "Raise Your Power"
    PERFORMER "Vomito Negro"
    INDEX 01 00:00:00
FILE "Vomito Negro-Human\02-Give Him Coke.wav" WAVE
  TRACK 02 AUDIO
    TITLE "Give Him Coke"
    PERFORMER "Vomito Negro"
    INDEX 01 00:00:00
  TRACK 03 AUDIO
    TITLE "In Strict Tempo"
    PERFORMER "Vomito Negro"
    INDEX 00 00:00:00
FILE "Vomito Negro-Human\03-In Strict Tempo.wav" WAVE
    INDEX 01 00:00:00
  TRACK 04 AUDIO
    TITLE "Black Power"
    PERFORMER "Vomito Negro"
    INDEX 00 08:17:37
FILE "Vomito Negro-Human\04-Black Power.wav" WAVE
    INDEX 01 00:00:00
  TRACK 05 AUDIO
    TITLE "The Citydumo"
    PERFORMER "Vomito Negro"
    INDEX 00 04:20:60
FILE "Vomito Negro-Human\05-The Citydumo.wav" WAVE
    INDEX 01 00:00:00
  TRACK 06 AUDIO
    TITLE "In Strict Tempo (Part Ii)"
    PERFORMER "Vomito Negro"
    INDEX 00 90:31:65
FILE "Vomito Negro-Human\06-In Strict Tempo (Part Ii).wav" WAVE
    INDEX 01 00:00:00
  TRACK 07 AUDIO
    TITLE "Meeting Eyes"
    PERFORMER "Vomito Negro"
    INDEX 00 97:26:45
FILE "Vomito Negro-Human\07-Meeting Eyes.wav" WAVE
    INDEX 01 00:00:00
  TRACK 08 AUDIO
    TITLE "The Future"
    PERFORMER "Vomito Negro"
    INDEX 00 92:53:70
FILE "Vomito Negro-Human\08-The Future.wav" WAVE
    INDEX 01 00:00:00
  TRACK 09 AUDIO
    TITLE "Escape"
    PERFORMER "Vomito Negro"
    INDEX 00 88:43:22
FILE "Vomito Negro-Human\09-Escape.wav" WAVE
    INDEX 01 00:00:00
  TRACK 10 AUDIO
    TITLE "Human"
    PERFORMER "Vomito Negro"
    INDEX 00 84:49:50
FILE "Vomito Negro-Human\10-Human.wav" WAVE
    INDEX 01 00:00:00
  TRACK 11 AUDIO
    TITLE "The Needle"
    PERFORMER "Vomito Negro"
    INDEX 00 70:41:50
FILE "Vomito Negro-Human\11-The Needle.wav" WAVE
    INDEX 01 00:00:00
  TRACK 12 AUDIO
    TITLE "Fell The Heat"
    PERFORMER "Vomito Negro"
    INDEX 00 74:44:05
FILE "Vomito Negro-Human\12-Fell The Heat.wav" WAVE
    INDEX 01 00:00:00
Правила, инструкции, FAQ!!!
Торрент  Добавлен [26 июн 2020, 20:40] Скачать торрент Магнет ссылка
Скачать торрент
[ Размер 11.56 КБ / Просмотров 8 ]

Статус
Проверен 
 
Размер  266.24 МБ
Приватный: Нет (DHT включён)
.torrent скачан  0
 


     Отправить личное сообщение
   
Страница 1 из 1
Показать сообщения за:  Поле сортировки  
Начать новую тему Ответить на тему


Сейчас этот форум просматривают: нет зарегистрированных пользователей и гости: 0


Вы не можете начинать темы
Вы не можете отвечать на сообщения
Вы не можете редактировать свои сообщения
Вы не можете удалять свои сообщения
Вы не можете добавлять вложения

Перейти:  
cron