Начать новую тему Ответить на тему
Статистика раздачи
Размер: 424.48 МБ | Добавлен: 26 июн 2020, 20:26 | Скачали: 0
Сидеров: 1  [0 байт/сек]    Личеров: 0  [0 байт/сек]
Пред. тема | След. тема 

Автор
Сообщение

СообщениеДобавлено: 26 июн 2020, 20:26 

Ответить с цитатой 

Vomito Negro - Fall Of An Empire
Жанр: EBM/Electro
Тип издания: CD, Album
Страна-производитель диска (релиза): Италия
Год издания: 2013
Издатель (лейбл): EK Product
Номер по каталогу: EKPCD026
Страна исполнителя (группы): Бельгия
Аудиокодек: FLAC (*.flac)
Тип рипа: image+.cue
Битрейт аудио: lossless
Продолжительность: 0:55:23.44
Источник (релизер): termoflex
Наличие сканов в содержимом раздачи: Да (600 dpi, .jpg)
Треклист:
01. Enemy Of The State 6:41
02. Tape X 4:32
03. Factory Child 3:47
04. Power On Demand 4:29
05. Machines Of Hate 8:27
06. Into Your Eyes 7:09
07. Emerging Souls 4:39
08. Hollow Heads 4:40
09. Fall Of An Empire 10:55
Код:
Exact Audio Copy V1.0 beta 3 from 29. August 2011
Отчёт EAC об извлечении, выполненном 7. апреля 2013, 16:43
Vomito Negro / Fall Of An Empire
Дисковод: hp      DVD-RAM UJ8B1   Adapter: 0  ID: 2
Режим чтения                 : Достоверность
Использование точного потока : Да
Отключение кэша аудио        : Да
Использование указателей C2  : Нет
Коррекция смещения при чтении                     : 6
Способность читать области Lead-in и Lead-out     : Нет
Заполнение пропущенных сэмплов тишиной            : Да
Удаление блоков с тишиной в начале и конце        : Нет
При вычислениях CRC использовались нулевые сэмплы : Да
Интерфейс                                         : Встроенный Win32-интерфейс для Win NT/2000
Выходной формат          : Пользовательский кодировщик
Выбранный битрейт        : 1024 kBit/s
Качество                 : Высокий
Добавление ID3-тега      : Нет
Утилита сжатия           : C:\Program Files (x86)\Exact Audio Copy\FLAC\FLAC.EXE
Дополнительные параметры : -V -8 -T "Date=%year%" -T "Genre=%genre%" %source%
TOC извлечённого CD
     Трек |   Старт  | Длительность | Начальный сектор | Конечный сектор
    ---------------------------------------------------------------------
       1  |  0:00.00 |    6:41.43   |           0      |      30117
       2  |  6:41.43 |    4:32.42   |       30118      |      50559
       3  | 11:14.10 |    3:47.30   |       50560      |      67614
       4  | 15:01.40 |    4:29.14   |       67615      |      87803
       5  | 19:30.54 |    8:27.25   |       87804      |     125853
       6  | 27:58.04 |    7:09.63   |      125854      |     158091
       7  | 35:07.67 |    4:39.50   |      158092      |     179066
       8  | 39:47.42 |    4:40.73   |      179067      |     200139
       9  | 44:28.40 |   10:55.04   |      200140      |     249268
Характеристики диапазона извлечения и сообщения об ошибках
Выбранный диапазон
     Имя файла C:\Users\HP\Music\Vomito Negro - Fall Of An Empire.wav
     Пиковый уровень 100.0 %
     Скорость извлечения 4.5 X
     Качество диапазона 100.0 %
     CRC теста 512FDC7B
     CRC копии 512FDC7B
     Копирование... OK
Ошибок не произошло
AccurateRip: сводка
Трек  1  отсутствует в базе данных
Трек  2  отсутствует в базе данных
Трек  3  отсутствует в базе данных
Трек  4  отсутствует в базе данных
Трек  5  отсутствует в базе данных
Трек  6  отсутствует в базе данных
Трек  7  отсутствует в базе данных
Трек  8  отсутствует в базе данных
Трек  9  отсутствует в базе данных
Ни одного трека нет в базе AccurateRip
Конец отчёта
---- CUETools DB Plugin V2.1.4
[CTDB TOCID: zef3c0M5ShPfiB0.E9JpXGTDPk4-] found
Submit result: zef3c0M5ShPfiB0.E9JpXGTDPk4- has been confirmed
Track | CTDB Status
  1   | (3/3) Accurately ripped
  2   | (3/3) Accurately ripped
  3   | (3/3) Accurately ripped
  4   | (3/3) Accurately ripped
  5   | (3/3) Accurately ripped
  6   | (3/3) Accurately ripped
  7   | (3/3) Accurately ripped
  8   | (3/3) Accurately ripped
  9   | (3/3) Accurately ripped
==== Контрольная сумма отчёта 4C9D85CFBD8BD0957A4D688685C9B8792D2C588C14DA559B6B1E9795051FC1DC ====
Код:
REM GENRE Electro
REM DATE 2013
REM DISCID 730CFB09
REM COMMENT "ExactAudioCopy v1.0b3"
PERFORMER "Vomito Negro"
TITLE "Fall Of An Empire"
FILE "Vomito Negro - Fall Of An Empire.flac" WAVE
  TRACK 01 AUDIO
    TITLE "Enemy Of The State"
    PERFORMER "Vomito Negro"
    INDEX 01 00:00:00
  TRACK 02 AUDIO
    TITLE "Tape X"
    PERFORMER "Vomito Negro"
    INDEX 01 06:41:43
  TRACK 03 AUDIO
    TITLE "Factory Child"
    PERFORMER "Vomito Negro"
    INDEX 01 11:14:10
  TRACK 04 AUDIO
    TITLE "Power On Demand"
    PERFORMER "Vomito Negro"
    INDEX 01 15:01:40
  TRACK 05 AUDIO
    TITLE "Machines Of Hate"
    PERFORMER "Vomito Negro"
    INDEX 01 19:30:54
  TRACK 06 AUDIO
    TITLE "Into Your Eyes"
    PERFORMER "Vomito Negro"
    INDEX 01 27:58:04
  TRACK 07 AUDIO
    TITLE "Emerging Souls"
    PERFORMER "Vomito Negro"
    INDEX 01 35:07:67
  TRACK 08 AUDIO
    TITLE "Hollow Heads"
    PERFORMER "Vomito Negro"
    INDEX 01 39:47:42
  TRACK 09 AUDIO
    TITLE "Fall Of An Empire"
    PERFORMER "Vomito Negro"
    INDEX 01 44:28:40
Правила, инструкции, FAQ!!!
Торрент  Добавлен [26 июн 2020, 20:26] Скачать торрент Магнет ссылка
Скачать торрент
[ Размер 18.06 КБ / Просмотров 6 ]

Статус
Проверен 
 
Размер  424.48 МБ
Приватный: Нет (DHT включён)
.torrent скачан  0
 


     Отправить личное сообщение
   
Страница 1 из 1
Показать сообщения за:  Поле сортировки  
Начать новую тему Ответить на тему


Сейчас этот форум просматривают: нет зарегистрированных пользователей и гости: 0


Вы не можете начинать темы
Вы не можете отвечать на сообщения
Вы не можете редактировать свои сообщения
Вы не можете удалять свои сообщения
Вы не можете добавлять вложения

Перейти:  
cron