Начать новую тему Ответить на тему
Статистика раздачи
Размер: 352.5 МБ | Добавлен: 26 июн 2020, 20:40 | Скачали: 0
Сидеров: 0  [0 байт/сек]    Личеров: 0  [0 байт/сек]
Пред. тема | След. тема 

Автор
Сообщение

СообщениеДобавлено: 26 июн 2020, 20:40 

Ответить с цитатой 

Vomito Negro - Death Sun
Жанр: EBM/Electro
Тип издания: CD, Album
Страна-производитель диска (релиза): Германия
Год издания: 2014
Издатель (лейбл): Dark Dimensions / Scanner
Номер по каталогу: SCAN 109
Страна исполнителя (группы): Бельгия
Аудиокодек: FLAC (*.flac)
Тип рипа: image+.cue
Битрейт аудио: lossless
Продолжительность: 0:46:17.32
Источник (релизер): termoflex
Наличие сканов в содержимом раздачи: Да (600 dpi, .jpg)
Треклист:
01. Time 6:08
02. Stain 6:10
03. Fighting The Force 4:25
04. Obsession 4:28
05. In Silent Places 5:13
06. White Lights 3:54
07. King Of Thieves 4:05
08. Nairaland 5:01
09. Angel Fire 6:50
Код:
Exact Audio Copy V1.0 beta 3 from 29. August 2011
Отчёт EAC об извлечении, выполненном 26. апреля 2014, 10:27
Vomito Negro / Death Sun
Дисковод: PIONEER DVD-RW  DVR-XD10   Adapter: 1  ID: 0
Режим чтения                 : Достоверность
Использование точного потока : Да
Отключение кэша аудио        : Да
Использование указателей C2  : Нет
Коррекция смещения при чтении                     : 96
Способность читать области Lead-in и Lead-out     : Нет
Заполнение пропущенных сэмплов тишиной            : Да
Удаление блоков с тишиной в начале и конце        : Нет
При вычислениях CRC использовались нулевые сэмплы : Да
Интерфейс                                         : Встроенный Win32-интерфейс для Win NT/2000
Выходной формат          : Пользовательский кодировщик
Выбранный битрейт        : 1024 kBit/s
Качество                 : Высокий
Добавление ID3-тега      : Нет
Утилита сжатия           : C:\Program Files (x86)\Exact Audio Copy\FLAC\FLAC.EXE
Дополнительные параметры : -V -8 -T "Date=%year%" -T "Genre=%genre%" -T "Comment=ripped by termoflex" %source%
TOC извлечённого CD
     Трек |   Старт  | Длительность | Начальный сектор | Конечный сектор
    ---------------------------------------------------------------------
       1  |  0:00.00 |    6:08.22   |           0      |      27621
       2  |  6:08.22 |    6:10.63   |       27622      |      55434
       3  | 12:19.10 |    4:25.38   |       55435      |      75347
       4  | 16:44.48 |    4:28.12   |       75348      |      95459
       5  | 21:12.60 |    5:13.40   |       95460      |     118974
       6  | 26:26.25 |    3:54.04   |      118975      |     136528
       7  | 30:20.29 |    4:05.13   |      136529      |     154916
       8  | 34:25.42 |    5:01.23   |      154917      |     177514
       9  | 39:26.65 |    6:50.42   |      177515      |     208306
Характеристики диапазона извлечения и сообщения об ошибках
Выбранный диапазон
     Имя файла C:\Users\HP\Music\Vomito Negro - Death Sun.wav
     Пиковый уровень 100.0 %
     Скорость извлечения 4.1 X
     Качество диапазона 100.0 %
     CRC теста 504827D7
     CRC копии 504827D7
     Копирование... OK
Ошибок не произошло
AccurateRip: сводка
Трек  1  отсутствует в базе данных
Трек  2  отсутствует в базе данных
Трек  3  отсутствует в базе данных
Трек  4  отсутствует в базе данных
Трек  5  отсутствует в базе данных
Трек  6  отсутствует в базе данных
Трек  7  отсутствует в базе данных
Трек  8  отсутствует в базе данных
Трек  9  отсутствует в базе данных
Ни одного трека нет в базе AccurateRip
Конец отчёта
---- CUETools DB Plugin V2.1.4
[CTDB TOCID: bAxi5AGKMjNUeqXiaj7YdKw9hjg-] found
Submit result: bAxi5AGKMjNUeqXiaj7YdKw9hjg- has been confirmed
Track | CTDB Status
  1   | (3/3) Accurately ripped
  2   | (3/3) Accurately ripped
  3   | (3/3) Accurately ripped
  4   | (3/3) Accurately ripped
  5   | (3/3) Accurately ripped
  6   | (3/3) Accurately ripped
  7   | (3/3) Accurately ripped
  8   | (3/3) Accurately ripped
  9   | (3/3) Accurately ripped
==== Контрольная сумма отчёта F1729186347831AE63A3A4DBDC2685BA762B13AC8AF9DC86693B3D430F46B477 ====
Код:
REM GENRE Electro
REM DATE 2014
REM DISCID 720AD909
REM COMMENT "ExactAudioCopy v1.0b3"
PERFORMER "Vomito Negro"
TITLE "Death Sun"
FILE "Vomito Negro - Death Sun.flac" WAVE
  TRACK 01 AUDIO
    TITLE "Time"
    PERFORMER "Vomito Negro"
    ISRC DEOV41400279
    INDEX 01 00:00:00
  TRACK 02 AUDIO
    TITLE "Stain"
    PERFORMER "Vomito Negro"
    ISRC DEOV41400280
    INDEX 01 06:08:22
  TRACK 03 AUDIO
    TITLE "Fighting The Force"
    PERFORMER "Vomito Negro"
    ISRC DEOV41400281
    INDEX 01 12:19:10
  TRACK 04 AUDIO
    TITLE "Obsession"
    PERFORMER "Vomito Negro"
    ISRC DEOV41400282
    INDEX 00 16:42:13
    INDEX 01 16:44:48
  TRACK 05 AUDIO
    TITLE "In Silent Places"
    PERFORMER "Vomito Negro"
    ISRC DEOV41400283
    INDEX 01 21:12:60
  TRACK 06 AUDIO
    TITLE "White Lights"
    PERFORMER "Vomito Negro"
    ISRC DEOV41400284
    INDEX 01 26:26:25
  TRACK 07 AUDIO
    TITLE "King Of Thieves"
    PERFORMER "Vomito Negro"
    ISRC DEOV41400285
    INDEX 01 30:20:29
  TRACK 08 AUDIO
    TITLE "Nairaland"
    PERFORMER "Vomito Negro"
    ISRC DEOV41400286
    INDEX 01 34:25:42
  TRACK 09 AUDIO
    TITLE "Angel Fire"
    PERFORMER "Vomito Negro"
    ISRC DEOV41400287
    INDEX 01 39:26:65
Правила, инструкции, FAQ!!!
Торрент  Добавлен [26 июн 2020, 20:40] Скачать торрент Магнет ссылка
Скачать торрент
[ Размер 14.9 КБ / Просмотров 9 ]

Статус
Проверен 
 
Размер  352.5 МБ
Приватный: Нет (DHT включён)
.torrent скачан  0
 


     Отправить личное сообщение
   
Страница 1 из 1
Показать сообщения за:  Поле сортировки  
Начать новую тему Ответить на тему


Сейчас этот форум просматривают: нет зарегистрированных пользователей и гости: 0


Вы не можете начинать темы
Вы не можете отвечать на сообщения
Вы не можете редактировать свои сообщения
Вы не можете удалять свои сообщения
Вы не можете добавлять вложения

Перейти:  
cron