Начать новую тему Ответить на тему
Статистика раздачи
Размер: 610.68 МБ | Добавлен: 26 июн 2020, 17:51 | Скачали: 0
Сидеров: 0  [0 байт/сек]    Личеров: 0  [0 байт/сек]
Пред. тема | След. тема 

Автор
Сообщение

СообщениеДобавлено: 26 июн 2020, 17:51 

Ответить с цитатой 

Vigilante - The Heroes' Code
Жанр: EBM, Electro
Год выпуска диска: 2005
Страна: Chile
Аудио кодек: FLAC
Тип рипа: image+.cue
Битрейт аудио: lossless
Продолжительность: 00:48:50
Трэклист:

1 Intro (The Heroes Code)
2 Survive
3 The Other Side
4 One Good Reason
5 Lack Of Faith
6 Still Alive
7 Answers
8 Humanity
9 Before
10 Freedom
11 The Other Side (Lamia Remix)
Video One Good Reason
Код:
Exact Audio Copy V0.99 prebeta 4 from 23. January 2008
Отчёт EAC об извлечении, выполненном 18. января 2009, 17:15
Vigilante / The Heroes' Code
Дисковод: PLEXTOR DVDR   PX-820SA   Adapter: 4  ID: 2
Режим чтения                 : Достоверность
Использование точного потока : Да
Отключение кэша аудио        : Да
Использование указателей C2  : Нет
Коррекция смещения при чтении                     : 48
Способность читать области Lead-in и Lead-out     : Нет
Заполнение пропущенных сэмплов тишиной            : Да
Удаление блоков с тишиной в начале и конце        : Нет
При вычислениях CRC использовались нулевые сэмплы : Да
Интерфейс                                         : Встроенный Win32-интерфейс для Win NT/2000
Выходной формат          : Пользовательский кодировщик
Выбранный битрейт        : 1024 kBit/s
Качество                 : Высокий
Добавление ID3-тэга      : Нет
Утилита сжатия           : C:\Program Files\Exact Audio Copy\FLAC\FLAC.EXE
Дополнительные параметры : -8 -V -T "ARTIST=%a" -T "TITLE=%t" -T "ALBUM=%g" -T "DATE=%y" -T "TRACKNUMBER=%n" -T "GENRE=%m" -T "COMMENT=%e" %s -o %d
TOC извлечённого CD
     Трек |   Старт  | Длительность | Начальный сектор | Конечный сектор
    ---------------------------------------------------------------------
       1  |  0:00.00 |    1:35.47   |           0      |       7171
       2  |  1:35.47 |    6:26.04   |        7172      |      36125
       3  |  8:01.51 |    4:12.57   |       36126      |      55082
       4  | 12:14.33 |    4:09.40   |       55083      |      73797
       5  | 16:23.73 |    4:21.21   |       73798      |      93393
       6  | 20:45.19 |    5:09.05   |       93394      |     116573
       7  | 25:54.24 |    4:41.35   |      116574      |     137683
       8  | 30:35.59 |    5:20.56   |      137684      |     161739
       9  | 35:56.40 |    4:34.35   |      161740      |     182324
      10  | 40:31.00 |    3:39.55   |      182325      |     198804
      11  | 44:10.55 |    4:39.53   |      198805      |     219782
      12  | 51:22.33 |   16:30.02   |      231183      |     305434
Характеристики диапазона извлечения и сообщения об ошибках
Выбранный диапазон
     Имя файла C:\Vigilante - The Heroes' Code.wav
     Пиковый уровень 97.7 %
     Качество диапазона 99.9 %
     CRC теста B2CDAFA8
     CRC копии B2CDAFA8
     Копирование... OK
Ошибок не произошло
Конец отчёта
Код:
AUDIOCHECKER v2.0 beta (build 457) - by Dester - opdester@freemail.hu
~~~~~~~~~~~~~~~~~~~~~~~~~~~~~~~~~~
-=== НЕ РЕДАКТИРУЙТЕ ЭТОТ ФАЙЛ! ===-
Путь: ...\(066) Vigilante - The Heroes' Code (2005)
1 -=- Vigilante - The Heroes' Code.flac -=- CDDA (100%)
154709508
Правила, инструкции, FAQ!!!
Торрент  Добавлен [26 июн 2020, 17:51] Скачать торрент Магнет ссылка
Скачать торрент
[ Размер 13.47 КБ / Просмотров 12 ]

Статус
Проверен 
 
Размер  610.68 МБ
Приватный: Нет (DHT включён)
.torrent скачан  0
 


     Отправить личное сообщение
   
Страница 1 из 1
Показать сообщения за:  Поле сортировки  
Начать новую тему Ответить на тему


Сейчас этот форум просматривают: нет зарегистрированных пользователей и гости: 0


Вы не можете начинать темы
Вы не можете отвечать на сообщения
Вы не можете редактировать свои сообщения
Вы не можете удалять свои сообщения
Вы не можете добавлять вложения

Перейти:  
cron