Начать новую тему Ответить на тему
Статистика раздачи
Размер: 554.41 МБ | Добавлен: 26 июн 2020, 17:15 | Скачали: 0
Сидеров: 0  [0 байт/сек]    Личеров: 0  [0 байт/сек]
Пред. тема | След. тема 

Автор
Сообщение

СообщениеДобавлено: 26 июн 2020, 17:15 

Ответить с цитатой 

Various Artists - Awake The Machines Vol. 5
Жанр: EBM, Electro
Год выпуска диска: 2005
Производитель диска: Германия
Аудио кодек: FLAC
Тип рипа: image+.cue
Битрейт аудио: lossless
Продолжительность: 69:45.46
Трэклист:
01. Solitary Experiments - Delight
02. Hocico - Spirits Of Crime (Murder Mix By Spetsnaz)
03. Analogue Brain - Versatile Violence (Club Mix)
04. Tristesse De La Lune - Ninive (Sero Overdose Remix)
05. Spetsnaz - That Perfect Body (Flawless Mix)
06. Combichrist - This Is My Rifle (AK47 Mix By Controlled Collapse)
07. Amduscia - Corpses Symphony (Mutilated Body Mix)
08. Pyriel - Prophecy
09. Cephalgy - Gott
10. Blutengel - Go To Hell (Forever Lost Remix)
11. Angels & Agony - Systems (Flux Version)
12. Necessary Response - Tomorrow (Edit)
13. Icon Of Coil - Shelter (Analogue Brain Edit)
14. Din (A) Tod - Creation Crucifixion (ATM Edit)
15. Snow In China - Face 2 Face (Frontal)
16. Accessory - Never (Short Version)
17. Agonoize - Running (Clubversion)
Exact Audio Copy V0.99 prebeta 4 from 23. January 2008
Отчёт EAC об извлечении, выполненном 8. февраля 2009, 18:01
VA / Awake The Machines Vol. 5
Дисковод: PIONEER DVD-RW DVR-111D Adapter: 0 ID: 0
Режим чтения : Достоверность
Использование точного потока : Да
Отключение кэша аудио : Да
Использование указателей C2 : Нет
Коррекция смещения при чтении : 48
Способность читать области Lead-in и Lead-out : Нет
Заполнение пропущенных сэмплов тишиной : Да
Удаление блоков с тишиной в начале и конце : Нет
При вычислениях CRC использовались нулевые сэмплы : Да
Интерфейс : Установленный внешний ASPI-интерфейс
Выходной формат : Пользовательский кодировщик
Выбранный битрейт : 1024 kBit/s
Качество : Высокий
Добавление ID3-тэга : Нет
Утилита сжатия : C:\Program Files\Exact Audio Copy\FLAC\FLAC.EXE
Дополнительные параметры : -8 -V -T "ARTIST=%a" -T "TITLE=%t" -T "ALBUM=%g" -T "DATE=%y" -T "TRACKNUMBER=%n" -T "GENRE=%m" -T "COMMENT=%e" %s -o %d
TOC извлечённого CD
Трек | Старт | Длительность | Начальный сектор | Конечный сектор
---------------------------------------------------------------------
1 | 0:00.00 | 4:27.24 | 0 | 20048
2 | 4:27.24 | 4:39.73 | 20049 | 41046
3 | 9:07.22 | 3:55.05 | 41047 | 58676
4 | 13:02.27 | 3:44.10 | 58677 | 75486
5 | 16:46.37 | 3:54.60 | 75487 | 93096
6 | 20:41.22 | 4:37.10 | 93097 | 113881
7 | 25:18.32 | 4:48.22 | 113882 | 135503
8 | 30:06.54 | 4:07.57 | 135504 | 154085
9 | 34:14.36 | 4:12.26 | 154086 | 173011
10 | 38:26.62 | 5:14.63 | 173012 | 196624
11 | 43:41.50 | 4:12.63 | 196625 | 215587
12 | 47:54.38 | 4:39.65 | 215588 | 236577
13 | 52:34.28 | 4:06.64 | 236578 | 255091
14 | 56:41.17 | 4:06.01 | 255092 | 273542
15 | 60:47.18 | 4:55.03 | 273543 | 295670
16 | 65:42.21 | 4:03.25 | 295671 | 313920
17 | 69:45.46 | 3:57.62 | 313921 | 331757
Характеристики диапазона извлечения и сообщения об ошибках
Выбранный диапазон
Имя файла C:\Documents and Settings\Admin.COMPUTER-535839\Рабочий стол\Various Artists - Awake The Machines Vol. 5\Various Artists - Awake The Machines Vol. 5.wav
Пиковый уровень 100.0 %
Качество диапазона 99.9 %
CRC теста FA9DD7E2
CRC копии FA9DD7E2
Копирование... OK
Ошибок не произошло
AccurateRip: сводка
Трек 1 точное извлечение (доверие 3) [FD00B65A]
Трек 2 точное извлечение (доверие 2) [DCD4AA05]
Трек 3 точное извлечение (доверие 2) [BA561324]
Трек 4 точное извлечение (доверие 2) [A8B7CE9E]
Трек 5 точное извлечение (доверие 2) [1829F53D]
Трек 6 точное извлечение (доверие 2) [47BD88DF]
Трек 7 точное извлечение (доверие 2) [A94504E6]
Трек 8 точное извлечение (доверие 2) [5BABD332]
Трек 9 точное извлечение (доверие 2) [B227D62C]
Трек 10 точное извлечение (доверие 2) [356265CE]
Трек 11 точное извлечение (доверие 2) [D780A1CC]
Трек 12 точное извлечение (доверие 2) [273954C8]
Трек 13 точное извлечение (доверие 2) [CB4BC34E]
Трек 14 точное извлечение (доверие 2) [1054EAF8]
Трек 15 точное извлечение (доверие 2) [BF4C3B7E]
Трек 16 точное извлечение (доверие 2) [76B53CAE]
Трек 17 точное извлечение (доверие 2) [AD1B969F]
Все треки извлечены точно
Конец отчёта
AUDIOCHECKER v2.0 beta (build 457) - by Dester - opdester@freemail.hu
~~~~~~~~~~~~~~~~~~~~~~~~~~~~~~~~~~
-=== DO NOT EDIT THIS FILE! ===-
Path: ...\Various Artists - Awake The Machines Vol. 5
1 -=- Various Artists - Awake The Machines Vol. 5.flac -=- CDDA (100%)
125340532
Доп. информация:
Label: Out Of Line
Catalog#: OUT 195
Format: CD
Country: Germany
Released: 2005
Genre: Electronic
Style: EBM, Electro
Credits: Artwork By [Artwork & Layout] - userdx
Compiled By - Mir
Mastered By - Guido Fricke
Правила, инструкции, FAQ!!!
Торрент  Добавлен [26 июн 2020, 17:15] Скачать торрент Магнет ссылка
Скачать торрент
[ Размер 11.67 КБ / Просмотров 9 ]

Статус
Проверен 
 
Размер  554.41 МБ
Приватный: Нет (DHT включён)
.torrent скачан  0
 


     Отправить личное сообщение
   
Страница 1 из 1
Показать сообщения за:  Поле сортировки  
Начать новую тему Ответить на тему


Сейчас этот форум просматривают: нет зарегистрированных пользователей и гости: 0


Вы не можете начинать темы
Вы не можете отвечать на сообщения
Вы не можете редактировать свои сообщения
Вы не можете удалять свои сообщения
Вы не можете добавлять вложения

Перейти:  
cron