Начать новую тему Ответить на тему
Статистика раздачи
Размер: 432.41 МБ | Добавлен: 26 июн 2020, 19:05 | Скачали: 0
Сидеров: 0  [0 байт/сек]    Личеров: 0  [0 байт/сек]
Пред. тема | След. тема 

Автор
Сообщение

СообщениеДобавлено: 26 июн 2020, 19:05 

Ответить с цитатой 

The 3rd Culture / Origin Of Soil
Жанр: EBM, Electro
Страна-производитель диска: Germany
Год издания диска: 2002
Издатель (лейбл): Strahlomat
Номер по каталогу: beam 5
Страна: Germany
Аудио кодек: FLAC (*.flac)
Тип рипа: tracks+.cue
Битрейт аудио: lossless
Продолжительность: 58:29
Источник (релизер): CD-R
Наличие сканов в содержимом раздачи: нет
Треклист:
1 Bitter Song (Toxic World Mix) 6:19
2 Dust & Ashes 4:18
3 Come Not, When I´am Dead 4:49
4 Objectively Existent 4:46
5 Lifeforms 3:54
6 Wicked Generation 4:13
7 Another Sky 4:15
8 Down To Camelot 4:07
9 Sermons In Stones 4:04
10 Withered Root 3:55
11 Recovery (From The Sermons In Stones) 8:11
12 Come Not, When I´am Dead 5:30
Код:
Exact Audio Copy V0.99 prebeta 5 from 4. May 2009
EAC extraction logfile from 19. December 2010, 0:30
The 3rd Culture / Origin of Soil
Used drive  : PIONEER DVD-RW  DVR-216D   Adapter: 0  ID: 0
Read mode               : Secure
Utilize accurate stream : Yes
Defeat audio cache      : Yes
Make use of C2 pointers : No
Read offset correction                      : 96
Overread into Lead-In and Lead-Out          : No
Fill up missing offset samples with silence : Yes
Delete leading and trailing silent blocks   : No
Null samples used in CRC calculations       : Yes
Used interface                              : Native Win32 interface for Win NT & 2000
Gap handling                                : Appended to previous track
Used output format              : User Defined Encoder
Selected bitrate                : 1024 kBit/s
Quality                         : High
Add ID3 tag                     : No
Command line compressor         : C:\Program Files (x86)\Exact Audio Copy\Flac\flac.exe
Additional command line options : -8 -V -T "ARTIST=%a" -T "TITLE=%t" -T "ALBUM=%g" -T "DATE=%y" -T "TRACKNUMBER=%n" -T "GENRE=%m" -T "COMMENT=EAC FLAC -8" %s
TOC of the extracted CD
     Track |   Start  |  Length  | Start sector | End sector
    ---------------------------------------------------------
        1  |  0:00.00 |  6:20.00 |         0    |    28499
        2  |  6:20.00 |  4:18.30 |     28500    |    47879
        3  | 10:38.30 |  4:49.67 |     47880    |    69621
        4  | 15:28.22 |  4:47.13 |     69622    |    91159
        5  | 20:15.35 |  3:54.45 |     91160    |   108754
        6  | 24:10.05 |  4:13.55 |    108755    |   127784
        7  | 28:23.60 |  4:15.12 |    127785    |   146921
        8  | 32:38.72 |  4:07.58 |    146922    |   165504
        9  | 36:46.55 |  4:05.25 |    165505    |   183904
       10  | 40:52.05 |  3:55.07 |    183905    |   201536
       11  | 44:47.12 |  8:11.58 |    201537    |   238419
       12  | 52:58.70 |  5:30.40 |    238420    |   263209
Track  1
     Filename I:\Audio\TORRENTS\The 3rd Culture - Origin Of Soil\tracks\ 01. The 3rd Culture – Bitter Song (Toxic World Mix).wav
     Pre-gap length  0:00:02.00
     Peak level 98.8 %
     Track quality 100.0 %
     Test CRC CEB83B48
     Copy CRC CEB83B48
     Track not present in AccurateRip database
     Copy OK
Track  2
     Filename I:\Audio\TORRENTS\The 3rd Culture - Origin Of Soil\tracks\ 02. The 3rd Culture – Dust & Ashes.wav
     Pre-gap length  0:00:02.00
     Peak level 98.8 %
     Track quality 99.9 %
     Test CRC BB888BAB
     Copy CRC BB888BAB
     Track not present in AccurateRip database
     Copy OK
Track  3
     Filename I:\Audio\TORRENTS\The 3rd Culture - Origin Of Soil\tracks\ 03. The 3rd Culture – Come not ,when I am dead.wav
     Pre-gap length  0:00:02.00
     Peak level 98.8 %
     Track quality 99.9 %
     Test CRC 75F71B50
     Copy CRC 75F71B50
     Track not present in AccurateRip database
     Copy OK
Track  4
     Filename I:\Audio\TORRENTS\The 3rd Culture - Origin Of Soil\tracks\ 04. The 3rd Culture – Objectively Existent.wav
     Pre-gap length  0:00:02.00
     Peak level 98.8 %
     Track quality 100.0 %
     Test CRC 66EFC3F7
     Copy CRC 66EFC3F7
     Track not present in AccurateRip database
     Copy OK
Track  5
     Filename I:\Audio\TORRENTS\The 3rd Culture - Origin Of Soil\tracks\ 05. The 3rd Culture – Lifeforms.wav
     Pre-gap length  0:00:02.00
     Peak level 98.8 %
     Track quality 100.0 %
     Test CRC 7F22DFFE
     Copy CRC 7F22DFFE
     Track not present in AccurateRip database
     Copy OK
Track  6
     Filename I:\Audio\TORRENTS\The 3rd Culture - Origin Of Soil\tracks\ 06. The 3rd Culture – Wicked Generation.wav
     Pre-gap length  0:00:02.00
     Peak level 98.8 %
     Track quality 100.0 %
     Test CRC DDB1EDE9
     Copy CRC DDB1EDE9
     Track not present in AccurateRip database
     Copy OK
Track  7
     Filename I:\Audio\TORRENTS\The 3rd Culture - Origin Of Soil\tracks\ 07. The 3rd Culture – Another Sky.wav
     Pre-gap length  0:00:02.00
     Peak level 98.8 %
     Track quality 100.0 %
     Test CRC 8287AD0A
     Copy CRC 8287AD0A
     Track not present in AccurateRip database
     Copy OK
Track  8
     Filename I:\Audio\TORRENTS\The 3rd Culture - Origin Of Soil\tracks\ 08. The 3rd Culture – Down to Camelot.wav
     Pre-gap length  0:00:02.00
     Peak level 98.8 %
     Track quality 100.0 %
     Test CRC 962A8118
     Copy CRC 962A8118
     Track not present in AccurateRip database
     Copy OK
Track  9
     Filename I:\Audio\TORRENTS\The 3rd Culture - Origin Of Soil\tracks\ 09. The 3rd Culture – Sermons in Stones.wav
     Pre-gap length  0:00:02.00
     Peak level 98.8 %
     Track quality 100.0 %
     Test CRC 6C1127C9
     Copy CRC 6C1127C9
     Track not present in AccurateRip database
     Copy OK
Track 10
     Filename I:\Audio\TORRENTS\The 3rd Culture - Origin Of Soil\tracks\ 10. The 3rd Culture – Withered Root.wav
     Pre-gap length  0:00:02.00
     Peak level 98.8 %
     Track quality 99.9 %
     Test CRC 16D7D687
     Copy CRC 16D7D687
     Track not present in AccurateRip database
     Copy OK
Track 11
     Filename I:\Audio\TORRENTS\The 3rd Culture - Origin Of Soil\tracks\ 11. The 3rd Culture – Recovery (from the Serons in Stones).wav
     Pre-gap length  0:00:02.00
     Peak level 98.8 %
     Track quality 99.9 %
     Test CRC FFFC9CC4
     Copy CRC FFFC9CC4
     Track not present in AccurateRip database
     Copy OK
Track 12
     Filename I:\Audio\TORRENTS\The 3rd Culture - Origin Of Soil\tracks\ 12. The 3rd Culture – Come not, when I am dead (X-Mod rmx).wav
     Pre-gap length  0:00:02.00
     Peak level 98.8 %
     Track quality 100.0 %
     Test CRC CB859E44
     Copy CRC CB859E44
     Track not present in AccurateRip database
     Copy OK
None of the tracks are present in the AccurateRip database
No errors occurred
End of status report
Код:
REM GENRE Techno-Industrial
REM DATE 2002
REM DISCID 990DB50C
REM COMMENT "ExactAudioCopy v0.99pb5"
PERFORMER "The 3rd Culture"
TITLE "Origin of Soil"
FILE " 01. The 3rd Culture – Bitter Song (Toxic World Mix).wav" WAVE
  TRACK 01 AUDIO
    TITLE "Bitter Song (Toxic World Mix)"
    PERFORMER "The 3rd Culture"
    INDEX 01 00:00:00
  TRACK 02 AUDIO
    TITLE "Dust & Ashes"
    PERFORMER "The 3rd Culture"
    INDEX 00 06:18:00
FILE " 02. The 3rd Culture – Dust & Ashes.wav" WAVE
    INDEX 01 00:00:00
  TRACK 03 AUDIO
    TITLE "Come not ,when I am dead"
    PERFORMER "The 3rd Culture"
    INDEX 00 04:16:30
FILE " 03. The 3rd Culture – Come not ,when I am dead.wav" WAVE
    INDEX 01 00:00:00
  TRACK 04 AUDIO
    TITLE "Objectively Existent"
    PERFORMER "The 3rd Culture"
    INDEX 00 04:47:67
FILE " 04. The 3rd Culture – Objectively Existent.wav" WAVE
    INDEX 01 00:00:00
  TRACK 05 AUDIO
    TITLE "Lifeforms"
    PERFORMER "The 3rd Culture"
    INDEX 00 04:45:13
FILE " 05. The 3rd Culture – Lifeforms.wav" WAVE
    INDEX 01 00:00:00
  TRACK 06 AUDIO
    TITLE "Wicked Generation"
    PERFORMER "The 3rd Culture"
    INDEX 00 03:52:45
FILE " 06. The 3rd Culture – Wicked Generation.wav" WAVE
    INDEX 01 00:00:00
  TRACK 07 AUDIO
    TITLE "Another Sky"
    PERFORMER "The 3rd Culture"
    INDEX 00 04:11:55
FILE " 07. The 3rd Culture – Another Sky.wav" WAVE
    INDEX 01 00:00:00
  TRACK 08 AUDIO
    TITLE "Down to Camelot"
    PERFORMER "The 3rd Culture"
    INDEX 00 04:13:12
FILE " 08. The 3rd Culture – Down to Camelot.wav" WAVE
    INDEX 01 00:00:00
  TRACK 09 AUDIO
    TITLE "Sermons in Stones"
    PERFORMER "The 3rd Culture"
    INDEX 00 04:05:58
FILE " 09. The 3rd Culture – Sermons in Stones.wav" WAVE
    INDEX 01 00:00:00
  TRACK 10 AUDIO
    TITLE "Withered Root"
    PERFORMER "The 3rd Culture"
    INDEX 00 04:03:25
FILE " 10. The 3rd Culture – Withered Root.wav" WAVE
    INDEX 01 00:00:00
  TRACK 11 AUDIO
    TITLE "Recovery (from the Serons in Stones)"
    PERFORMER "The 3rd Culture"
    INDEX 00 03:53:07
FILE " 11. The 3rd Culture – Recovery (from the Serons in Stones).wav" WAVE
    INDEX 01 00:00:00
  TRACK 12 AUDIO
    TITLE "Come not, when I am dead (X-Mod rmx)"
    PERFORMER "The 3rd Culture"
    INDEX 00 08:09:58
FILE " 12. The 3rd Culture – Come not, when I am dead (X-Mod rmx).wav" WAVE
    INDEX 01 00:00:00
Код:
Started at: суббота, 18. 12. 2010. - 23:28.46
12 files found
01 -===- track 1 in drive PIONEER DVD-RW  DVR-216D
  Track ripped successfully
  Conclusion: this track is CDDA with probability 100%
  Tempfile successfully deleted.
02 -===- track 2 in drive PIONEER DVD-RW  DVR-216D
  Track ripped successfully
  Conclusion: this track is CDDA with probability 100%
  Tempfile successfully deleted.
03 -===- track 3 in drive PIONEER DVD-RW  DVR-216D
  Track ripped successfully
  Conclusion: this track is CDDA with probability 100%
  Tempfile successfully deleted.
04 -===- track 4 in drive PIONEER DVD-RW  DVR-216D
  Track ripped successfully
  Conclusion: this track is CDDA with probability 100%
  Tempfile successfully deleted.
05 -===- track 5 in drive PIONEER DVD-RW  DVR-216D
  Track ripped successfully
  Conclusion: this track is CDDA with probability 99%
  Tempfile successfully deleted.
06 -===- track 6 in drive PIONEER DVD-RW  DVR-216D
  Track ripped successfully
  Conclusion: this track is CDDA with probability 100%
  Tempfile successfully deleted.
07 -===- track 7 in drive PIONEER DVD-RW  DVR-216D
  Track ripped successfully
  Conclusion: this track is CDDA with probability 100%
  Tempfile successfully deleted.
08 -===- track 8 in drive PIONEER DVD-RW  DVR-216D
  Track ripped successfully
  Conclusion: this track is CDDA with probability 100%
  Tempfile successfully deleted.
09 -===- track 9 in drive PIONEER DVD-RW  DVR-216D
  Track ripped successfully
  Conclusion: this track is CDDA with probability 100%
  Tempfile successfully deleted.
10 -===- track 10 in drive PIONEER DVD-RW  DVR-216D
  Track ripped successfully
  Conclusion: this track is CDDA with probability 100%
  Tempfile successfully deleted.
11 -===- track 11 in drive PIONEER DVD-RW  DVR-216D
  Track ripped successfully
  Conclusion: this track is CDDA with probability 100%
  Tempfile successfully deleted.
12 -===- track 12 in drive PIONEER DVD-RW  DVR-216D
  Track ripped successfully
  Conclusion: this track is CDDA with probability 100%
  Tempfile successfully deleted.
Finished at: суббота, 18. 12. 2010. - 23:37.43 (operation time: 0:08.56)


Доп. информация: http://www.discogs.com/3rd-Culture-Origin-Of-Soil/release/2102860
executive producer & production adviser Carlos Peron
Armin Küster, Christian Lemmer
Правила, инструкции, FAQ!!!
Торрент  Добавлен [26 июн 2020, 19:05] Скачать торрент Магнет ссылка
Скачать торрент
[ Размер 18.85 КБ / Просмотров 11 ]

Статус
Проверен 
 
Размер  432.41 МБ
Приватный: Нет (DHT включён)
.torrent скачан  0
 


     Отправить личное сообщение
   
Страница 1 из 1
Показать сообщения за:  Поле сортировки  
Начать новую тему Ответить на тему


Сейчас этот форум просматривают: нет зарегистрированных пользователей и гости: 0


Вы не можете начинать темы
Вы не можете отвечать на сообщения
Вы не можете редактировать свои сообщения
Вы не можете удалять свои сообщения
Вы не можете добавлять вложения

Перейти:  
cron