Начать новую тему Ответить на тему
Статистика раздачи
Размер: 571.35 МБ | Добавлен: 26 июн 2020, 20:24 | Скачали: 0
Сидеров: 0  [0 байт/сек]    Личеров: 0  [0 байт/сек]
Пред. тема | След. тема 

Автор
Сообщение

СообщениеДобавлено: 26 июн 2020, 20:24 

Ответить с цитатой 

Terminal Choice - Reloadead
Жанр: EBM, Electro
Год выпуска диска: 2003
Производитель диска: Germany
Аудио кодек: FLAC
Тип рипа: image+.cue
Битрейт аудио: lossless
Продолжительность: 01:14:48
Трэклист:
Re-Loaded:
01.Age Of Suffering 4:16
02.Serial Killer 3:39
03.Witchhunter 5:36
04.Someone 5:18
05.Animal 5:12
06.Armageddon 4:43
Re-Mixed:
07.Eiszeit (Mammut Remix) 4:16
08.Be Like Me (Elbenkiller Remix) 5:32
09.Pull The Trigger (Remixed By Unheilig) 6:11
10.Collective Suicide (Goth'n'Roll Remix) 4:44
Re-Released:
11.Daddy 4:42
12.Tonight 6:12
Re-Covered:
13.In This Lovely Night (Covered By TrümmerWelten) 6:30
Un-Released:
14.Wake Up! (Previously Unreleased) 7:28
Код:
Exact Audio Copy V0.99 prebeta 5 from 4. May 2009
Отчёт EAC об извлечении, выполненном 6. февраля 2010, 21:01
Terminal Choice / Reloaded
Дисковод: Optiarc DVD RW AD-7201S   Adapter: 2  ID: 1
Режим чтения                 : Достоверность
Использование точного потока : Да
Отключение кэша аудио        : Да
Использование указателей C2  : Нет
Коррекция смещения при чтении                     : 48
Способность читать области Lead-in и Lead-out     : Да
Заполнение пропущенных сэмплов тишиной            : Да
Удаление блоков с тишиной в начале и конце        : Нет
При вычислениях CRC использовались нулевые сэмплы : Да
Интерфейс                                         : Встроенный Win32-интерфейс для Win
NT/2000
Выходной формат : Внутренние WAV-операции
Формат сэмплов  : 44.100 Гц; 16 бит; стерео
TOC извлечённого CD
     Трек |   Старт  | Длительность | Начальный сектор | Конечный сектор
    ---------------------------------------------------------------------
       1  |  0:00.00 |    4:17.60   |           0      |      19334
       2  |  4:17.60 |    3:40.40   |       19335      |      35874
       3  |  7:58.25 |    5:38.65   |       35875      |      61289
       4  | 13:37.15 |    5:19.32   |       61290      |      85246
       5  | 18:56.47 |    5:13.13   |       85247      |     108734
       6  | 24:09.60 |    4:44.47   |      108735      |     130081
       7  | 28:54.32 |    4:19.20   |      130082      |     149526
       8  | 33:13.52 |    5:35.25   |      149527      |     174676
       9  | 38:49.02 |    6:11.38   |      174677      |     202539
      10  | 45:00.40 |    4:46.70   |      202540      |     224059
      11  | 49:47.35 |    4:42.12   |      224060      |     245221
      12  | 54:29.47 |    6:15.00   |      245222      |     273346
      13  | 60:44.47 |    6:35.05   |      273347      |     302976
      14  | 67:19.52 |    7:29.10   |      302977      |     336661
Характеристики диапазона извлечения и сообщения об ошибках
Выбранный диапазон
     Имя файла D:\Раздачи\Terminal Choice - Reloadead\Terminal Choice - Reloaded.wav
     Пиковый уровень 97.7 %
     Качество диапазона 99.9 %
     CRC теста 483382DA
     CRC копии 483382DA
     Копирование... OK
Ошибок не произошло
Конец отчёта
Код:
Started at: суббота, 06. 02. 2010. - 21:14.26
1 file found
1 -===- D:\Раздачи\Terminal Choice - Reloadead\Terminal Choice - Reloaded.flac
  Extracted successfully
  Conclusion: this track is CDDA with probability 100%
  Tempfile successfully deleted.
Finished at: суббота, 06. 02. 2010. - 21:22.27 (operation time: 0:08.01)
Label:Out Of Line
Catalog#:OUT 128
Format:CD
Country:Europe
Released:01 Dec 2003
Genre:Electronic
Style:EBM, Electro
HQ Scans Full Complete
Правила, инструкции, FAQ!!!
Торрент  Добавлен [26 июн 2020, 20:24] Скачать торрент Магнет ссылка
Скачать торрент
[ Размер 12.12 КБ / Просмотров 11 ]

Статус
Проверен 
 
Размер  571.35 МБ
Приватный: Нет (DHT включён)
.torrent скачан  0
 


     Отправить личное сообщение
   
Страница 1 из 1
Показать сообщения за:  Поле сортировки  
Начать новую тему Ответить на тему


Сейчас этот форум просматривают: нет зарегистрированных пользователей и гости: 0


Вы не можете начинать темы
Вы не можете отвечать на сообщения
Вы не можете редактировать свои сообщения
Вы не можете удалять свои сообщения
Вы не можете добавлять вложения

Перейти:  
cron