Начать новую тему Ответить на тему
Статистика раздачи
Размер: 568.88 МБ | Добавлен: 26 июн 2020, 17:40 | Скачали: 0
Сидеров: 0  [0 байт/сек]    Личеров: 0  [0 байт/сек]
Пред. тема | След. тема 

Автор
Сообщение

СообщениеДобавлено: 26 июн 2020, 17:40 

Ответить с цитатой 

Tamtrum - Some Atomik Songz
Жанр: EBM, Electro
Год выпуска диска: 2005
Производитель диска: US
Аудио кодек: FLAC
Тип рипа: tracks+.cue
Битрейт аудио: lossless
Продолжительность: 62:13
Трэклист:
1 In Blood We Trust 5:04
2 Tantrum 6:41
3 My Vile Venom 5:12
4 Datura Dream 5:01
5 Somewhere In Times 5:15
6 Extazy 4:46
7 G.O.O.M : W/M 4:08
8 Atomik Suicide 4:53
9 Psycologicalaxative 6:02
10 X-Track 3:56
11 Datura Dream (HIV+ Remix) 6:25
12 Le Son De La Pluie ("Fils De Pute" Remix By Grendel) 4:54
Video My Vile Venom 6:37
Доп. информация: TEST & COPY с диска из личной коллекции. Сканы 600 dpi в комплекте.
http://www.discogs.com/Tamtrum-Some-Atomik-Songz/release/610523
Код:
EAC extraction logfile from 21. June 2010, 20:42 for CD
Tamtrum / Some Atomik Songz
Used drive  : PIONEER DVD-RW  DVR-216D   Adapter: 2  ID: 3
Read mode   : Secure with NO C2, accurate stream, disable cache
Read offset correction : 96
Overread into Lead-In and Lead-Out : No
Used output format : D:\Program Files\Exact Audio Copy 5\Flac\flac.exe   (User Defined Encoder)
                     320 kBit/s
                     Additional command line options : -8 -V %s
Other options      :
    Fill up missing offset samples with silence : Yes
    Delete leading and trailing silent blocks : No
    Native Win32 interface for Win NT & 2000
Track  1
     Filename I:\Audio\Tamtrum - Some Atomik Songz\Tracks\01. Tamtrum - In Blood We Trust.wav
     Pre-gap length  0:00:02.00
     Peak level 100.0 %
     Track quality 100.0 %
     Test CRC 06E84489
     Copy CRC 06E84489
     Copy OK
Track  2
     Filename I:\Audio\Tamtrum - Some Atomik Songz\Tracks\02. Tamtrum - Tantrum.wav
     Pre-gap length  0:00:02.00
     Peak level 97.2 %
     Track quality 99.9 %
     Test CRC E0B3523A
     Copy CRC E0B3523A
     Copy OK
Track  3
     Filename I:\Audio\Tamtrum - Some Atomik Songz\Tracks\03. Tamtrum - My Vile Venom.wav
     Pre-gap length  0:00:02.00
     Peak level 97.2 %
     Track quality 100.0 %
     Test CRC DF67FB01
     Copy CRC DF67FB01
     Copy OK
Track  4
     Filename I:\Audio\Tamtrum - Some Atomik Songz\Tracks\04. Tamtrum - Datura Dream.wav
     Pre-gap length  0:00:02.00
     Peak level 97.2 %
     Track quality 100.0 %
     Test CRC 71A81271
     Copy CRC 71A81271
     Copy OK
Track  5
     Filename I:\Audio\Tamtrum - Some Atomik Songz\Tracks\05. Tamtrum - Somewhere in Times.wav
     Pre-gap length  0:00:02.00
     Peak level 97.2 %
     Track quality 100.0 %
     Test CRC C2E8F8D0
     Copy CRC C2E8F8D0
     Copy OK
Track  6
     Filename I:\Audio\Tamtrum - Some Atomik Songz\Tracks\06. Tamtrum - Extazy.wav
     Pre-gap length  0:00:02.00
     Peak level 97.2 %
     Track quality 100.0 %
     Test CRC 0879DB5E
     Copy CRC 0879DB5E
     Copy OK
Track  7
     Filename I:\Audio\Tamtrum - Some Atomik Songz\Tracks\07. Tamtrum - G.O.O.M- W,M.wav
     Pre-gap length  0:00:02.00
     Peak level 97.2 %
     Track quality 100.0 %
     Test CRC 3E0E2FDC
     Copy CRC 3E0E2FDC
     Copy OK
Track  8
     Filename I:\Audio\Tamtrum - Some Atomik Songz\Tracks\08. Tamtrum - Atomik Suicide.wav
     Pre-gap length  0:00:02.00
     Peak level 97.2 %
     Track quality 100.0 %
     Test CRC 8D4B3F0C
     Copy CRC 8D4B3F0C
     Copy OK
Track  9
     Filename I:\Audio\Tamtrum - Some Atomik Songz\Tracks\09. Tamtrum - Psycologicalaxative.wav
     Pre-gap length  0:00:02.00
     Peak level 97.2 %
     Track quality 100.0 %
     Test CRC 0C55535D
     Copy CRC 0C55535D
     Copy OK
Track 10
     Filename I:\Audio\Tamtrum - Some Atomik Songz\Tracks\10. Tamtrum - X-Track.wav
     Pre-gap length  0:00:02.00
     Peak level 97.2 %
     Track quality 100.0 %
     Test CRC AFA48189
     Copy CRC AFA48189
     Copy OK
Track 11
     Filename I:\Audio\Tamtrum - Some Atomik Songz\Tracks\11. Tamtrum - Datura Dream (HIV+ Remix).wav
     Pre-gap length  0:00:02.00
     Peak level 97.2 %
     Track quality 99.9 %
     Test CRC 0621C2F7
     Copy CRC 0621C2F7
     Copy OK
Track 12
     Filename I:\Audio\Tamtrum - Some Atomik Songz\Tracks\12. Tamtrum - Le Son de la Pluie ('Fils De Pute' Remix by Grendel).wav
     Pre-gap length  0:00:02.00
     Peak level 100.0 %
     Track quality 100.0 %
     Test CRC 7036DC59
     Copy CRC 7036DC59
     Copy OK
No errors occured
End of status report
Код:
REM GENRE Industrial
REM DATE 2005
REM DISCID AE10B90D
REM COMMENT "ExactAudioCopy v0.95b3"
PERFORMER "Tamtrum"
TITLE "Some Atomik Songz"
FILE "01. Tamtrum - In Blood We Trust.wav" WAVE
  TRACK 01 AUDIO
    TITLE "In Blood We Trust"
    PERFORMER "Tamtrum"
    FLAGS DCP
    INDEX 01 00:00:00
  TRACK 02 AUDIO
    TITLE "Tantrum"
    PERFORMER "Tamtrum"
    FLAGS DCP
    INDEX 00 05:01:30
FILE "02. Tamtrum - Tantrum.wav" WAVE
    INDEX 01 00:00:00
  TRACK 03 AUDIO
    TITLE "My Vile Venom"
    PERFORMER "Tamtrum"
    FLAGS DCP
    INDEX 00 06:38:32
FILE "03. Tamtrum - My Vile Venom.wav" WAVE
    INDEX 01 00:00:00
  TRACK 04 AUDIO
    TITLE "Datura Dream"
    PERFORMER "Tamtrum"
    FLAGS DCP
    INDEX 00 05:09:72
FILE "04. Tamtrum - Datura Dream.wav" WAVE
    INDEX 01 00:00:00
  TRACK 05 AUDIO
    TITLE "Somewhere in Times"
    PERFORMER "Tamtrum"
    FLAGS DCP
    INDEX 00 04:58:19
FILE "05. Tamtrum - Somewhere in Times.wav" WAVE
    INDEX 01 00:00:00
  TRACK 06 AUDIO
    TITLE "Extazy"
    PERFORMER "Tamtrum"
    FLAGS DCP
    INDEX 00 05:12:70
FILE "06. Tamtrum - Extazy.wav" WAVE
    INDEX 01 00:00:00
  TRACK 07 AUDIO
    TITLE "G.O.O.M: W/M"
    PERFORMER "Tamtrum"
    FLAGS DCP
    INDEX 00 04:43:70
FILE "07. Tamtrum - G.O.O.M- W,M.wav" WAVE
    INDEX 01 00:00:00
  TRACK 08 AUDIO
    TITLE "Atomik Suicide"
    PERFORMER "Tamtrum"
    FLAGS DCP
    INDEX 00 04:05:71
FILE "08. Tamtrum - Atomik Suicide.wav" WAVE
    INDEX 01 00:00:00
  TRACK 09 AUDIO
    TITLE "Psycologicalaxative"
    PERFORMER "Tamtrum"
    FLAGS DCP
    INDEX 00 04:50:30
FILE "09. Tamtrum - Psycologicalaxative.wav" WAVE
    INDEX 01 00:00:00
  TRACK 10 AUDIO
    TITLE "X-Track"
    PERFORMER "Tamtrum"
    FLAGS DCP
    INDEX 00 05:59:38
FILE "10. Tamtrum - X-Track.wav" WAVE
    INDEX 01 00:00:00
  TRACK 11 AUDIO
    TITLE "Datura Dream (HIV+ Remix)"
    PERFORMER "Tamtrum"
    FLAGS DCP
    INDEX 00 03:53:72
FILE "11. Tamtrum - Datura Dream (HIV+ Remix).wav" WAVE
    INDEX 01 00:00:00
  TRACK 12 AUDIO
    TITLE "Le Son de la Pluie ('Fils De Pute' Remix by Grendel)"
    PERFORMER "Tamtrum"
    FLAGS DCP
    INDEX 00 06:22:38
FILE "12. Tamtrum - Le Son de la Pluie ('Fils De Pute' Remix by Grendel).wav" WAVE
    INDEX 01 00:00:00
Правила, инструкции, FAQ!!!
Торрент  Добавлен [26 июн 2020, 17:40] Скачать торрент Магнет ссылка
Скачать торрент
[ Размер 13.06 КБ / Просмотров 14 ]

Статус
Проверен 
 
Размер  568.88 МБ
Приватный: Нет (DHT включён)
.torrent скачан  0
 


     Отправить личное сообщение
   
Страница 1 из 1
Показать сообщения за:  Поле сортировки  
Начать новую тему Ответить на тему


Сейчас этот форум просматривают: нет зарегистрированных пользователей и гости: 0


Вы не можете начинать темы
Вы не можете отвечать на сообщения
Вы не можете редактировать свои сообщения
Вы не можете удалять свои сообщения
Вы не можете добавлять вложения

Перейти:  
cron