Начать новую тему Ответить на тему
Статистика раздачи
Размер: 373.43 МБ | Добавлен: 26 июн 2020, 17:15 | Скачали: 0
Сидеров: 0  [0 байт/сек]    Личеров: 0  [0 байт/сек]
Пред. тема | След. тема 

Автор
Сообщение

СообщениеДобавлено: 26 июн 2020, 17:15 

Ответить с цитатой 

Eco / Das Album
[img=right]http://i94.fastpic.ru/big/2018/1021/bf/d44880d215aec0b9e1659560d37e64bf.jpg
Жанр: EBM, Electro, Synthpop
Страна-производитель диска: Germany
Год издания диска: 1995
Издатель (лейбл): Off Beat
Номер по каталогу: (SPV 085-22322)
Страна: Germany
Аудиокодек: FLAC (*.flac)
Тип рипа: tracks+.cue
Битрейт аудио: lossless
Продолжительность: 54:52
Источник (релизер): Оригинальный Диск (Original CD)
Наличие сканов в содержимом раздачи: да
Треклист:
01. Sterntaler - 4:57
02. Realize - 5:41
03. Schizophrenie - 5:12
04. Volxtanz - 5:13
05. Jetzt Oder Nie - 4:53
06. Schmutz - 7:38
07. Frame Of Mind - 5:45
08. Kaltes Herz - 4:49
09. Rotkäppchen - 4:05
10. Electron - 6:38
Код:
Exact Audio Copy V1.0 beta 1 from 15. November 2010
EAC extraction logfile from 19. May 2011, 18:12
Eco / Das Album
Used drive  : ASUS    DRW-24B3LT   Adapter: 2  ID: 0
Read mode               : Secure
Utilize accurate stream : Yes
Defeat audio cache      : Yes
Make use of C2 pointers : No
Read offset correction                      : 6
Overread into Lead-In and Lead-Out          : No
Fill up missing offset samples with silence : Yes
Delete leading and trailing silent blocks   : No
Null samples used in CRC calculations       : Yes
Used interface                              : Native Win32 interface for Win NT & 2000
Gap handling                                : Appended to previous track
Used output format              : User Defined Encoder
Selected bitrate                : 1024 kBit/s
Quality                         : High
Add ID3 tag                     : No
Command line compressor         : C:\Program Files\Exact Audio Copy\Flac\flac.exe
Additional command line options : -8 -V -T "ARTIST=%a" -T "TITLE=%t" -T "ALBUM=%g" -T "DATE=%y" -T "TRACKNUMBER=%n" -T "GENRE=%m" -T "COMMENT=EAC FLAC -8" %s
TOC of the extracted CD
     Track |   Start  |  Length  | Start sector | End sector
    ---------------------------------------------------------
        1  |  0:00.32 |  4:57.18 |        32    |    22324
        2  |  4:57.50 |  5:40.57 |     22325    |    47881
        3  | 10:38.32 |  5:12.08 |     47882    |    71289
        4  | 15:50.40 |  5:13.27 |     71290    |    94791
        5  | 21:03.67 |  4:53.03 |     94792    |   116769
        6  | 25:56.70 |  7:38.22 |    116770    |   151141
        7  | 33:35.17 |  5:45.15 |    151142    |   177031
        8  | 39:20.32 |  4:49.00 |    177032    |   198706
        9  | 44:09.32 |  4:04.58 |    198707    |   217064
       10  | 48:14.15 |  6:38.55 |    217065    |   246969
Track  1
     Filename O:\LOSSLESS\Раздача\ECO (1995) Das Album\01. Sterntaler.wav
     Pre-gap length  0:00:02.32
     Peak level 97.7 %
     Extraction speed 3.6 X
     Track quality 100.0 %
     Test CRC 9A788DFC
     Copy CRC 9A788DFC
     Cannot be verified as accurate (confidence 5)  [2CE38FA0], AccurateRip returned [F8F5CA33]
     Copy OK
Track  2
     Filename O:\LOSSLESS\Раздача\ECO (1995) Das Album\02. Realize.wav
     Pre-gap length  0:00:01.45
     Peak level 97.7 %
     Extraction speed 4.2 X
     Track quality 100.0 %
     Test CRC 48A2E915
     Copy CRC 48A2E915
     Cannot be verified as accurate (confidence 4)  [5938056D], AccurateRip returned [6F54F5F2]
     Copy OK
Track  3
     Filename O:\LOSSLESS\Раздача\ECO (1995) Das Album\03. Schizophrenie.wav
     Pre-gap length  0:00:01.47
     Peak level 97.7 %
     Extraction speed 4.6 X
     Track quality 100.0 %
     Test CRC E0D00C81
     Copy CRC E0D00C81
     Cannot be verified as accurate (confidence 4)  [06538C65], AccurateRip returned [E85D5D55]
     Copy OK
Track  4
     Filename O:\LOSSLESS\Раздача\ECO (1995) Das Album\04. Volxtanz.wav
     Pre-gap length  0:00:01.45
     Peak level 97.7 %
     Extraction speed 5.0 X
     Track quality 100.0 %
     Test CRC CEBD712D
     Copy CRC CEBD712D
     Cannot be verified as accurate (confidence 4)  [C46D56C2], AccurateRip returned [14660A2B]
     Copy OK
Track  5
     Filename O:\LOSSLESS\Раздача\ECO (1995) Das Album\05. Jetzt Oder Nie.wav
     Pre-gap length  0:00:01.41
     Peak level 97.7 %
     Extraction speed 5.4 X
     Track quality 100.0 %
     Test CRC 2E441CB4
     Copy CRC 2E441CB4
     Cannot be verified as accurate (confidence 4)  [F1BEDF54], AccurateRip returned [4CC17A07]
     Copy OK
Track  6
     Filename O:\LOSSLESS\Раздача\ECO (1995) Das Album\06. Schmutz.wav
     Pre-gap length  0:00:01.45
     Peak level 100.0 %
     Extraction speed 6.0 X
     Track quality 100.0 %
     Test CRC FC57431D
     Copy CRC FC57431D
     Cannot be verified as accurate (confidence 4)  [1B29F81A], AccurateRip returned [7D5AD79D]
     Copy OK
Track  7
     Filename O:\LOSSLESS\Раздача\ECO (1995) Das Album\07. Frame Of Mind.wav
     Pre-gap length  0:00:01.47
     Peak level 97.7 %
     Extraction speed 6.3 X
     Track quality 100.0 %
     Test CRC 2FC70EC3
     Copy CRC 2FC70EC3
     Cannot be verified as accurate (confidence 4)  [826A0A3F], AccurateRip returned [2D4DF22B]
     Copy OK
Track  8
     Filename O:\LOSSLESS\Раздача\ECO (1995) Das Album\08. Kaltes Herz.wav
     Pre-gap length  0:00:01.42
     Peak level 97.7 %
     Extraction speed 6.4 X
     Track quality 100.0 %
     Test CRC 949D60C9
     Copy CRC 949D60C9
     Cannot be verified as accurate (confidence 4)  [DC6D1D00], AccurateRip returned [5B6496FD]
     Copy OK
Track  9
     Filename O:\LOSSLESS\Раздача\ECO (1995) Das Album\09. Rotkaeppchen.wav
     Pre-gap length  0:00:01.45
     Peak level 97.7 %
     Extraction speed 6.5 X
     Track quality 100.0 %
     Test CRC 40B5D1E2
     Copy CRC 40B5D1E2
     Cannot be verified as accurate (confidence 4)  [7F0E0F3C], AccurateRip returned [157E32C3]
     Copy OK
Track 10
     Filename O:\LOSSLESS\Раздача\ECO (1995) Das Album\10. Electron.wav
     Pre-gap length  0:00:01.45
     Peak level 97.7 %
     Extraction speed 7.2 X
     Track quality 100.0 %
     Test CRC 38402D4F
     Copy CRC 38402D4F
     Cannot be verified as accurate (confidence 4)  [2DFBB46D], AccurateRip returned [E1CA4AE6]
     Copy OK
No tracks could be verified as accurate
You may have a different pressing from the one(s) in the database
No errors occurred
End of status report
Код:
REM GENRE Electronic
REM DATE 1995
REM DISCID 8F0CDC0A
REM COMMENT "ExactAudioCopy v1.0b1"
PERFORMER "Eco"
TITLE "Das Album"
FILE "01. Sterntaler.wav" WAVE
  TRACK 01 AUDIO
    TITLE "Sterntaler"
    PERFORMER "Eco"
    PREGAP 00:00:32
    INDEX 01 00:00:00
  TRACK 02 AUDIO
    TITLE "Realize"
    PERFORMER "Eco"
    INDEX 00 04:55:48
FILE "02. Realize.wav" WAVE
    INDEX 01 00:00:00
  TRACK 03 AUDIO
    TITLE "Schizophrenie"
    PERFORMER "Eco"
    INDEX 00 05:39:10
FILE "03. Schizophrenie.wav" WAVE
    INDEX 01 00:00:00
  TRACK 04 AUDIO
    TITLE "Volxtanz"
    PERFORMER "Eco"
    INDEX 00 05:10:38
FILE "04. Volxtanz.wav" WAVE
    INDEX 01 00:00:00
  TRACK 05 AUDIO
    TITLE "Jetzt Oder Nie"
    PERFORMER "Eco"
    INDEX 00 05:11:61
FILE "05. Jetzt Oder Nie.wav" WAVE
    INDEX 01 00:00:00
  TRACK 06 AUDIO
    TITLE "Schmutz"
    PERFORMER "Eco"
    INDEX 00 04:51:33
FILE "06. Schmutz.wav" WAVE
    INDEX 01 00:00:00
  TRACK 07 AUDIO
    TITLE "Frame Of Mind"
    PERFORMER "Eco"
    INDEX 00 07:36:50
FILE "07. Frame Of Mind.wav" WAVE
    INDEX 01 00:00:00
  TRACK 08 AUDIO
    TITLE "Kaltes Herz"
    PERFORMER "Eco"
    INDEX 00 05:43:48
FILE "08. Kaltes Herz.wav" WAVE
    INDEX 01 00:00:00
  TRACK 09 AUDIO
    TITLE "Rotkaeppchen"
    PERFORMER "Eco"
    INDEX 00 04:47:30
FILE "09. Rotkaeppchen.wav" WAVE
    INDEX 01 00:00:00
  TRACK 10 AUDIO
    TITLE "Electron"
    PERFORMER "Eco"
    INDEX 00 04:03:13
FILE "10. Electron.wav" WAVE
    INDEX 01 00:00:00
Доп. информация: Design – Georg Reimann
Producer – Heiko Daniel, Sevren Ni-Arb
Written-By, Composed By – Heiko Daniel
Правила, инструкции, FAQ!!!
Торрент  Добавлен [26 июн 2020, 17:15] Скачать торрент Магнет ссылка
Скачать торрент
[ Размер 16.03 КБ / Просмотров 12 ]

Статус
Проверен 
 
Размер  373.43 МБ
Приватный: Нет (DHT включён)
.torrent скачан  0
 


     Отправить личное сообщение
   
Страница 1 из 1
Показать сообщения за:  Поле сортировки  
Начать новую тему Ответить на тему


Сейчас этот форум просматривают: нет зарегистрированных пользователей и гости: 0


Вы не можете начинать темы
Вы не можете отвечать на сообщения
Вы не можете редактировать свои сообщения
Вы не можете удалять свои сообщения
Вы не можете добавлять вложения

Перейти:  
cron