Начать новую тему Ответить на тему
Статистика раздачи
Размер: 493.48 МБ | Добавлен: 26 июн 2020, 16:58 | Скачали: 0
Сидеров: 0  [0 байт/сек]    Личеров: 0  [0 байт/сек]
Пред. тема | След. тема 

Автор
Сообщение

СообщениеДобавлено: 26 июн 2020, 16:58 

Ответить с цитатой 

BhamBhamhara - Progressive Body Music
Жанр: EBM, Electro, Synthpop
Носитель: CD
Год издания: 2014
Издатель (лейбл): Scanner
Каталожный номер: SCAN116
Страна: Germany
Аудиокодек: FLAC (*.flac)
Тип рипа: image+.cue
Битрейт аудио: lossless
Продолжительность: 67:58
Источник (релизер): Собственный диск
Наличие сканов в содержимом раздачи: нет

Треклист:
01 kreislauf
02 wir feiern
03 das ziel
04 positiv
05 cest pas vrai
06 nur für euch
07 gebet
08 your eyes
09 scripted reality
10 gottes zorn
11 anchorman
12 wir feiern (club mix)
13 das ziel (club mix)
Код:
Exact Audio Copy V1.0 beta 3 from 29. August 2011
Отчёт EAC об извлечении, выполненном 25. ноября 2014, 20:01
Bhambhamhara / Progressive Body Music
Дисковод: TSSTcorpCDDVDW SH-S223B   Adapter: 0  ID: 0
Режим чтения                 : Достоверность
Использование точного потока : Да
Отключение кэша аудио        : Да
Использование указателей C2  : Нет
Коррекция смещения при чтении                     : 6
Способность читать области Lead-in и Lead-out     : Нет
Заполнение пропущенных сэмплов тишиной            : Да
Удаление блоков с тишиной в начале и конце        : Нет
При вычислениях CRC использовались нулевые сэмплы : Да
Интерфейс                                         : Встроенный Win32-интерфейс для Win NT/2000
Выходной формат          : Пользовательский кодировщик
Выбранный битрейт        : 128 kBit/s
Качество                 : Высокий
Добавление ID3-тега      : Нет
Утилита сжатия           : C:\Program Files (x86)\Exact Audio Copy\Flac\flac.exe
Дополнительные параметры : -V -8 -T "Date=%year%" -T "Genre=%genre%" %source%
TOC извлечённого CD
     Трек |   Старт  | Длительность | Начальный сектор | Конечный сектор
    ---------------------------------------------------------------------
       1  |  0:00.00 |    3:38.31   |           0      |      16380
       2  |  3:38.31 |    5:53.63   |       16381      |      42918
       3  |  9:32.19 |    5:07.06   |       42919      |      65949
       4  | 14:39.25 |    5:14.24   |       65950      |      89523
       5  | 19:53.49 |    4:48.54   |       89524      |     111177
       6  | 24:42.28 |    9:59.46   |      111178      |     156148
       7  | 34:41.74 |    5:31.11   |      156149      |     180984
       8  | 40:13.10 |    5:02.44   |      180985      |     203678
       9  | 45:15.54 |    4:37.24   |      203679      |     224477
      10  | 49:53.03 |    4:24.44   |      224478      |     244321
      11  | 54:17.47 |    4:48.29   |      244322      |     265950
      12  | 59:06.01 |    3:52.57   |      265951      |     283407
      13  | 62:58.58 |    4:30.71   |      283408      |     303728
      14  | 67:29.54 |    0:28.21   |      303729      |     305849
Характеристики диапазона извлечения и сообщения об ошибках
Выбранный диапазон
     Имя файла M:\Bhambhamhara - Progressive Body Music.wav
     Пиковый уровень 100.0 %
     Скорость извлечения 7.8 X
     Качество диапазона 100.0 %
     CRC теста 25889430
     CRC копии 25889430
     Копирование... OK
Ошибок не произошло
AccurateRip: сводка
Трек  1  отсутствует в базе данных
Трек  2  отсутствует в базе данных
Трек  3  отсутствует в базе данных
Трек  4  отсутствует в базе данных
Трек  5  отсутствует в базе данных
Трек  6  отсутствует в базе данных
Трек  7  отсутствует в базе данных
Трек  8  отсутствует в базе данных
Трек  9  отсутствует в базе данных
Трек 10  отсутствует в базе данных
Трек 11  отсутствует в базе данных
Трек 12  отсутствует в базе данных
Трек 13  отсутствует в базе данных
Трек 14  отсутствует в базе данных
Ни одного трека нет в базе AccurateRip
Конец отчёта
==== Контрольная сумма отчёта 525F329D398541DD3E3E924A9CE1C40E4096C2E4C46EE58DE828AC8D17F8103F ====
Код:
REM DISCID CE0FEE0E
REM COMMENT "ExactAudioCopy v1.0b3"
PERFORMER "Bhambhamhara"
TITLE "Progressive Body Music"
FILE "Bhambhamhara - Progressive Body Music.flac" WAVE
  TRACK 01 AUDIO
    TITLE "Kreislauf"
    PERFORMER "Bhambhamhara"
    INDEX 01 00:00:00
  TRACK 02 AUDIO
    TITLE "Wir Feiern"
    PERFORMER "Bhambhamhara"
    INDEX 01 03:38:31
  TRACK 03 AUDIO
    TITLE "Das Ziel"
    PERFORMER "Bhambhamhara"
    INDEX 01 09:32:19
  TRACK 04 AUDIO
    TITLE "Positiv"
    PERFORMER "Bhambhamhara"
    INDEX 01 14:39:25
  TRACK 05 AUDIO
    TITLE "Cest Pas Vrai"
    PERFORMER "Bhambhamhara"
    INDEX 01 19:53:49
  TRACK 06 AUDIO
    TITLE "Nur Fuer Euch"
    PERFORMER "Bhambhamhara"
    INDEX 01 24:42:28
  TRACK 07 AUDIO
    TITLE "Gebet"
    PERFORMER "Bhambhamhara"
    INDEX 01 34:41:74
  TRACK 08 AUDIO
    TITLE "Your Eyes"
    PERFORMER "Bhambhamhara"
    INDEX 01 40:13:10
  TRACK 09 AUDIO
    TITLE "Scripted Reality"
    PERFORMER "Bhambhamhara"
    INDEX 01 45:15:54
  TRACK 10 AUDIO
    TITLE "Gottes Zorn"
    PERFORMER "Bhambhamhara"
    INDEX 01 49:53:03
  TRACK 11 AUDIO
    TITLE "Anchorman"
    PERFORMER "Bhambhamhara"
    INDEX 01 54:17:47
  TRACK 12 AUDIO
    TITLE "Wir Feiern (Club Mix)"
    PERFORMER "Bhambhamhara"
    INDEX 01 59:06:01
  TRACK 13 AUDIO
    TITLE "Das Ziel (Club Mix)"
    PERFORMER "Bhambhamhara"
    INDEX 01 62:58:58
  TRACK 14 AUDIO
    TITLE "(Hidden Track) Rodney Hates Answering Machines"
    PERFORMER "Bhambhamhara"
    INDEX 01 67:29:54
Правила, инструкции, FAQ!!!
Торрент  Добавлен [26 июн 2020, 16:58] Скачать торрент Магнет ссылка
Скачать торрент
[ Размер 19.93 КБ / Просмотров 3 ]

Статус
Проверен 
 
Размер  493.48 МБ
Приватный: Нет (DHT включён)
.torrent скачан  0
 


     Отправить личное сообщение
   
Страница 1 из 1
Показать сообщения за:  Поле сортировки  
Начать новую тему Ответить на тему


Сейчас этот форум просматривают: нет зарегистрированных пользователей и гости: 0


Вы не можете начинать темы
Вы не можете отвечать на сообщения
Вы не можете редактировать свои сообщения
Вы не можете удалять свои сообщения
Вы не можете добавлять вложения

Перейти:  
cron
cron