Начать новую тему Ответить на тему
Статистика раздачи
Размер: 157.5 МБ | Добавлен: 26 июн 2020, 16:51 | Скачали: 0
Сидеров: 0  [0 байт/сек]    Личеров: 0  [0 байт/сек]
Пред. тема | След. тема 

Автор
Сообщение

СообщениеДобавлено: 26 июн 2020, 16:51 

Ответить с цитатой 

BhamBhamhara - Nur Für Euch
Жанр: EBM, Electro, Synthpop
Носитель: CDM
Год издания: 2014
Издатель (лейбл): Scanner
Каталожный номер: SCAN113
Страна: Germany
Аудиокодек: FLAC (*.flac)
Тип рипа: image+.cue
Битрейт аудио: lossless
Продолжительность: 21:46
Источник (релизер): Собственный диск
Наличие сканов в содержимом раздачи: нет

Треклист:
1 Nur Für Euch (Single Version)
2 Nur Für Euch (Zensiert by [:SITD:])
3 Your Eyes
4 Nur Für Euch (Abscess Remix by Sunny Schramm)
Код:
Exact Audio Copy V1.0 beta 3 from 29. August 2011
Отчёт EAC об извлечении, выполненном 29. ноября 2014, 11:24
BhamBhamhara / Nur Fur Euch
Дисковод: TSSTcorpCDDVDW SH-S223B   Adapter: 0  ID: 0
Режим чтения                 : Достоверность
Использование точного потока : Да
Отключение кэша аудио        : Да
Использование указателей C2  : Нет
Коррекция смещения при чтении                     : 6
Способность читать области Lead-in и Lead-out     : Нет
Заполнение пропущенных сэмплов тишиной            : Да
Удаление блоков с тишиной в начале и конце        : Нет
При вычислениях CRC использовались нулевые сэмплы : Да
Интерфейс                                         : Встроенный Win32-интерфейс для Win NT/2000
Выходной формат          : Пользовательский кодировщик
Выбранный битрейт        : 128 kBit/s
Качество                 : Высокий
Добавление ID3-тега      : Нет
Утилита сжатия           : C:\Program Files (x86)\Exact Audio Copy\Flac\flac.exe
Дополнительные параметры : -V -8 -T "Date=%year%" -T "Genre=%genre%" %source%
TOC извлечённого CD
     Трек |   Старт  | Длительность | Начальный сектор | Конечный сектор
    ---------------------------------------------------------------------
       1  |  0:00.00 |    5:14.63   |           0      |      23612
       2  |  5:14.63 |    5:46.62   |       23613      |      49624
       3  | 11:01.50 |    5:01.34   |       49625      |      72233
       4  | 16:03.09 |    5:42.66   |       72234      |      97949
Характеристики диапазона извлечения и сообщения об ошибках
Выбранный диапазон
     Имя файла M:\BhamBhamhara - Nur Fur Euch.wav
     Пиковый уровень 97.1 %
     Скорость извлечения 2.4 X
     Качество диапазона 100.0 %
     CRC теста 080BED5A
     CRC копии 080BED5A
     Копирование... OK
Ошибок не произошло
AccurateRip: сводка
Трек  1  отсутствует в базе данных
Трек  2  отсутствует в базе данных
Трек  3  отсутствует в базе данных
Трек  4  отсутствует в базе данных
Ни одного трека нет в базе AccurateRip
Конец отчёта
==== Контрольная сумма отчёта ADE6103525BD8166E638BDBD12ED53644196DF8A37C77FB1DCAB1C661D7376A2 ====
Код:
REM GENRE Electronic
REM DATE 2014
REM DISCID 2F051A04
REM COMMENT "ExactAudioCopy v1.0b3"
PERFORMER "BhamBhamhara"
TITLE "Nur Fur Euch"
FILE "BhamBhamhara - Nur Fur Euch.flac" WAVE
  TRACK 01 AUDIO
    TITLE "Nur Fur Euch (Single Version)"
    PERFORMER "BhamBhamhara"
    INDEX 01 00:00:00
  TRACK 02 AUDIO
    TITLE "Nur Fur Euch (Zensiert by [:SITD:])"
    PERFORMER "BhamBhamhara"
    INDEX 00 05:12:64
    INDEX 01 05:14:63
  TRACK 03 AUDIO
    TITLE "Your Eyes"
    PERFORMER "BhamBhamhara"
    INDEX 00 10:59:50
    INDEX 01 11:01:50
  TRACK 04 AUDIO
    TITLE "Nur Fur Euch (Abscess Remix by Sunny Schramm)"
    PERFORMER "BhamBhamhara"
    INDEX 00 16:01:10
    INDEX 01 16:03:09
Правила, инструкции, FAQ!!!
Торрент  Добавлен [26 июн 2020, 16:51] Скачать торрент Магнет ссылка
Скачать торрент
[ Размер 12.94 КБ / Просмотров 7 ]

Статус
Проверен 
 
Размер  157.5 МБ
Приватный: Нет (DHT включён)
.torrent скачан  0
 


     Отправить личное сообщение
   
Страница 1 из 1
Показать сообщения за:  Поле сортировки  
Начать новую тему Ответить на тему


Сейчас этот форум просматривают: нет зарегистрированных пользователей и гости: 0


Вы не можете начинать темы
Вы не можете отвечать на сообщения
Вы не можете редактировать свои сообщения
Вы не можете удалять свои сообщения
Вы не можете добавлять вложения

Перейти:  
cron