Начать новую тему Ответить на тему
Статистика раздачи
Размер: 129.9 МБ | Добавлен: 26 июн 2020, 16:51 | Скачали: 0
Сидеров: 0  [0 байт/сек]    Личеров: 0  [0 байт/сек]
Пред. тема | След. тема 

Автор
Сообщение

СообщениеДобавлено: 26 июн 2020, 16:51 

Ответить с цитатой 

BhamBhamhara - Kreislauf
Жанр: EBM, Electro, Synthpop
Носитель: CDM
Год издания: 2014
Издатель (лейбл): Scanner
Каталожный номер: SCAN110
Страна: Germany
Аудиокодек: FLAC (*.flac)
Тип рипа: image+.cue
Битрейт аудио: lossless
Продолжительность: 17:15
Источник (релизер): Собственный диск
Наличие сканов в содержимом раздачи: нет

Треклист:
1 Kreislauf (Original Mix)
2 Kreislauf (Straftanz RMX)
3 Positiv (RMX)
4 Kreislauf (Extended Version)
Код:
Exact Audio Copy V1.0 beta 3 from 29. August 2011
Отчёт EAC об извлечении, выполненном 29. ноября 2014, 12:48
BhamBhamhara / Kreislauf
Дисковод: TSSTcorpCDDVDW SH-S223B   Adapter: 0  ID: 0
Режим чтения                 : Достоверность
Использование точного потока : Да
Отключение кэша аудио        : Да
Использование указателей C2  : Нет
Коррекция смещения при чтении                     : 6
Способность читать области Lead-in и Lead-out     : Нет
Заполнение пропущенных сэмплов тишиной            : Да
Удаление блоков с тишиной в начале и конце        : Нет
При вычислениях CRC использовались нулевые сэмплы : Да
Интерфейс                                         : Встроенный Win32-интерфейс для Win NT/2000
Выходной формат          : Пользовательский кодировщик
Выбранный битрейт        : 128 kBit/s
Качество                 : Высокий
Добавление ID3-тега      : Нет
Утилита сжатия           : C:\Program Files (x86)\Exact Audio Copy\Flac\flac.exe
Дополнительные параметры : -V -8 -T "Date=%year%" -T "Genre=%genre%" %source%
TOC извлечённого CD
     Трек |   Старт  | Длительность | Начальный сектор | Конечный сектор
    ---------------------------------------------------------------------
       1  |  0:00.00 |    3:39.64   |           0      |      16488
       2  |  3:39.64 |    4:24.07   |       16489      |      36295
       3  |  8:03.71 |    4:22.36   |       36296      |      55981
       4  | 12:26.32 |    4:48.43   |       55982      |      77624
Характеристики диапазона извлечения и сообщения об ошибках
Выбранный диапазон
     Имя файла M:\BhamBhamhara - Kreislauf.wav
     Пиковый уровень 98.8 %
     Скорость извлечения 2.3 X
     Качество диапазона 100.0 %
     CRC теста 3EC0B09F
     CRC копии 3EC0B09F
     Копирование... OK
Ошибок не произошло
AccurateRip: сводка
Трек  1  отсутствует в базе данных
Трек  2  отсутствует в базе данных
Трек  3  отсутствует в базе данных
Трек  4  отсутствует в базе данных
Ни одного трека нет в базе AccurateRip
Конец отчёта
==== Контрольная сумма отчёта 8B4CAFE52EE7B3268C8BD3025ACA8CA4BF10A49F07222EAB2170A0FE2A33CF67 ====
Код:
REM GENRE Electronic
REM DATE 2014
REM DISCID 2B040B04
REM COMMENT "ExactAudioCopy v1.0b3"
PERFORMER "BhamBhamhara"
TITLE "Kreislauf"
FILE "BhamBhamhara - Kreislauf.flac" WAVE
  TRACK 01 AUDIO
    TITLE "Kreislauf (Original Mix)"
    PERFORMER "BhamBhamhara"
    FLAGS DCP
    INDEX 01 00:00:00
  TRACK 02 AUDIO
    TITLE "Kreislauf (Straftanz RMX)"
    PERFORMER "BhamBhamhara"
    FLAGS DCP
    INDEX 00 03:37:64
    INDEX 01 03:39:64
  TRACK 03 AUDIO
    TITLE "Positiv (RMX)"
    PERFORMER "BhamBhamhara"
    FLAGS DCP
    INDEX 00 08:01:71
    INDEX 01 08:03:71
  TRACK 04 AUDIO
    TITLE "Kreislauf (Extended Version)"
    PERFORMER "BhamBhamhara"
    FLAGS DCP
    INDEX 00 12:24:32
    INDEX 01 12:26:32
Правила, инструкции, FAQ!!!
Торрент  Добавлен [26 июн 2020, 16:51] Скачать торрент Магнет ссылка
Скачать торрент
[ Размер 10.76 КБ / Просмотров 6 ]

Статус
Проверен 
 
Размер  129.9 МБ
Приватный: Нет (DHT включён)
.torrent скачан  0
 


     Отправить личное сообщение
   
Страница 1 из 1
Показать сообщения за:  Поле сортировки  
Начать новую тему Ответить на тему


Сейчас этот форум просматривают: нет зарегистрированных пользователей и гости: 0


Вы не можете начинать темы
Вы не можете отвечать на сообщения
Вы не можете редактировать свои сообщения
Вы не можете удалять свои сообщения
Вы не можете добавлять вложения

Перейти:  
cron