Начать новую тему Ответить на тему
Статистика раздачи
Размер: 478.29 МБ | Добавлен: 26 июн 2020, 20:19 | Скачали: 0
Сидеров: 1  [0 байт/сек]    Личеров: 0  [0 байт/сек]
Пред. тема | След. тема 

Автор
Сообщение

СообщениеДобавлено: 26 июн 2020, 20:19 

Ответить с цитатой 

Spiritual Reality - Kalt
Жанр: EBM, Electro, Synth-pop
Год выпуска диска: 2003
Производитель диска: Германия
Аудио кодек: FLAC
Тип рипа: image+.cue
Битрейт аудио: lossless
Продолжительность: 58:51.43
Трэклист:
01. Prima Luce
02. Run
03. Tranen
04. Lebensangst
05. Nothing
06. Opalescent Sphere
07. Zuruck In Meinem Kopf
08. Amnesia
09. Heart Of Stone
10. Friend Or Foe
11. Vesperi
12. Run (Breakmix)
13. Tranen (Massiv In Mensch Remix)
14. Decay
Exact Audio Copy V0.99 prebeta 4 from 23. January 2008
Отчёт EAC об извлечении, выполненном 1. февраля 2009, 14:47
Spiritual Reality / Kalt
Дисковод: PIONEER DVD-RW DVR-111D Adapter: 0 ID: 0
Режим чтения : Достоверность
Использование точного потока : Да
Отключение кэша аудио : Да
Использование указателей C2 : Нет
Коррекция смещения при чтении : 48
Способность читать области Lead-in и Lead-out : Нет
Заполнение пропущенных сэмплов тишиной : Да
Удаление блоков с тишиной в начале и конце : Нет
При вычислениях CRC использовались нулевые сэмплы : Да
Интерфейс : Установленный внешний ASPI-интерфейс
Выходной формат : Пользовательский кодировщик
Выбранный битрейт : 1024 kBit/s
Качество : Высокий
Добавление ID3-тэга : Нет
Утилита сжатия : C:\Program Files\Exact Audio Copy\FLAC\FLAC.EXE
Дополнительные параметры : -8 -V -T "ARTIST=%a" -T "TITLE=%t" -T "ALBUM=%g" -T "DATE=%y" -T "TRACKNUMBER=%n" -T "GENRE=%m" -T "COMMENT=%e" %s -o %d
TOC извлечённого CD
Трек | Старт | Длительность | Начальный сектор | Конечный сектор
---------------------------------------------------------------------
1 | 0:00.00 | 4:14.11 | 0 | 19060
2 | 4:14.11 | 4:04.02 | 19061 | 37362
3 | 8:18.13 | 4:21.44 | 37363 | 56981
4 | 12:39.57 | 4:31.69 | 56982 | 77375
5 | 17:11.51 | 3:54.56 | 77376 | 94981
6 | 21:06.32 | 5:30.67 | 94982 | 119798
7 | 26:37.24 | 5:25.39 | 119799 | 144212
8 | 32:02.63 | 4:32.66 | 144213 | 164678
9 | 36:35.54 | 5:44.43 | 164679 | 190521
10 | 42:20.22 | 4:06.73 | 190522 | 209044
11 | 46:27.20 | 3:56.30 | 209045 | 226774
12 | 50:23.50 | 4:00.15 | 226775 | 244789
13 | 54:23.65 | 4:27.53 | 244790 | 264867
14 | 58:51.43 | 6:11.09 | 264868 | 292701
Характеристики диапазона извлечения и сообщения об ошибках
Выбранный диапазон
Имя файла C:\Documents and Settings\Admin.COMPUTER-535839\Рабочий стол\Spiritual Reality - Kalt [2003]\Spiritual Reality - Kalt.wav
Пиковый уровень 96.6 %
Качество диапазона 100.0 %
CRC теста 69456282
CRC копии 69456282
Копирование... OK
Ошибок не произошло
AccurateRip: сводка
Трек 1 нет в базе данных
Трек 2 нет в базе данных
Трек 3 нет в базе данных
Трек 4 нет в базе данных
Трек 5 нет в базе данных
Трек 6 нет в базе данных
Трек 7 нет в базе данных
Трек 8 нет в базе данных
Трек 9 нет в базе данных
Трек 10 нет в базе данных
Трек 11 нет в базе данных
Трек 12 нет в базе данных
Трек 13 нет в базе данных
Трек 14 нет в базе данных
Ни одного трека нет в базе AccurateRip
Конец отчёта
AUDIOCHECKER v2.0 beta (build 457) - by Dester - opdester@freemail.hu
~~~~~~~~~~~~~~~~~~~~~~~~~~~~~~~~~~
-=== DO NOT EDIT THIS FILE! ===-
Path: ...\Spiritual Reality - Kalt [2003]
1 -=- Spiritual Reality - Kalt.flac -=- CDDA (100%)
256534852
Доп. информация:
Label: Scanner
Catalog#: SC 026
Format: CD, Album
Country: Germany
Released: 19 May 2003
Genre: Electronic
Style: Electro, Synth-pop
Credits: Keyboards [Live] - Sascha Schmitz
Performer - Thomas Stanzel, Ulrike Brauße
Notes: 14 is a bonus track.
Правила, инструкции, FAQ!!!
Торрент  Добавлен [26 июн 2020, 20:19] Скачать торрент Магнет ссылка
Скачать торрент
[ Размер 10.42 КБ / Просмотров 7 ]

Статус
Проверен 
 
Размер  478.29 МБ
Приватный: Нет (DHT включён)
.torrent скачан  0
 


     Отправить личное сообщение
   
Страница 1 из 1
Показать сообщения за:  Поле сортировки  
Начать новую тему Ответить на тему


Сейчас этот форум просматривают: нет зарегистрированных пользователей и гости: 0


Вы не можете начинать темы
Вы не можете отвечать на сообщения
Вы не можете редактировать свои сообщения
Вы не можете удалять свои сообщения
Вы не можете добавлять вложения

Перейти:  
cron