Начать новую тему Ответить на тему
Статистика раздачи
Размер: 468.13 МБ | Добавлен: 26 июн 2020, 17:19 | Скачали: 0
Сидеров: 0  [0 байт/сек]    Личеров: 0  [0 байт/сек]
Пред. тема | След. тема 

Автор
Сообщение

СообщениеДобавлено: 26 июн 2020, 17:19 

Ответить с цитатой 

P24 - Stimmen Bleiben Stumm
Жанр: EBM, Electro, Synth-pop
Год выпуска диска: 2008
Производитель диска: Germany
Аудио кодек: APE
Тип рипа: image+.cue
Битрейт аудио: lossless
Трэклист:
01.Geldgier 4:47
02.Zu Weit Weg 4:29
03.Haferschleim Und Müslibrei 3:36
04.Der Himmel Ist Frei 4:25
05.Genug Ist Genug 5:46
06.Nur Für Einen Moment 4:59
07.Auf Und Davon 6:58
08.Freiheit Aus Träumen 6:22
09.Geheimnisvoll 4:27
10.Hallo Gewalt 6:23
11.Neid 3:46
12.Blickfeld 4:34
13.Stimmen Bleiben Stumm 5:19
Код:
Exact Audio Copy V0.99 prebeta 5 from 4. May 2009
Отчёт EAC об извлечении, выполненном 10. октября 2009, 16:17
P24 / CD Stimmen Bleiben Stumm
Дисковод: Optiarc DVD RW AD-7201S   Adapter: 1  ID: 1
Режим чтения                 : Достоверность
Использование точного потока : Да
Отключение кэша аудио        : Да
Использование указателей C2  : Нет
Коррекция смещения при чтении                     : 48
Способность читать области Lead-in и Lead-out     : Нет
Заполнение пропущенных сэмплов тишиной            : Да
Удаление блоков с тишиной в начале и конце        : Нет
При вычислениях CRC использовались нулевые сэмплы : Да
Интерфейс                                         : Встроенный Win32-интерфейс для Win NT/2000
Выходной формат : Внутренние WAV-операции
Формат сэмплов  : 44.100 Гц; 16 бит; стерео
TOC извлечённого CD
     Трек |   Старт  | Длительность | Начальный сектор | Конечный сектор
    ---------------------------------------------------------------------
       1  |  0:00.00 |    4:47.28   |           0      |      21552
       2  |  4:47.28 |    4:29.10   |       21553      |      41737
       3  |  9:16.38 |    3:36.68   |       41738      |      58005
       4  | 12:53.31 |    4:25.67   |       58006      |      77947
       5  | 17:19.23 |    5:46.48   |       77948      |     103945
       6  | 23:05.71 |    4:59.02   |      103946      |     126372
       7  | 28:04.73 |    6:58.03   |      126373      |     157725
       8  | 35:03.01 |    6:22.50   |      157726      |     186425
       9  | 41:25.51 |    4:27.21   |      186426      |     206471
      10  | 45:52.72 |    6:23.15   |      206472      |     235211
      11  | 52:16.12 |    3:46.65   |      235212      |     252226
      12  | 56:03.02 |    4:34.34   |      252227      |     272810
      13  | 60:37.36 |    5:19.13   |      272811      |     296748
Характеристики диапазона извлечения и сообщения об ошибках
Выбранный диапазон
     Имя файла D:\Documents and Settings\Rodexx\Рабочий стол\P24 - Stimmen Bleiben Stumm\P24 - CD Stimmen Bleiben Stumm.wav
     Пиковый уровень 98.8 %
     Качество диапазона 99.9 %
     CRC теста 27CF614E
     CRC копии 27CF614E
     Копирование... OK
Ошибок не произошло
AccurateRip: сводка
Трек  1  точность не определена (достоверность 1)  [7A2CF95B], AccurateRip вернул [5A048120]
Трек  2  точность не определена (достоверность 1)  [7E0AC55C], AccurateRip вернул [FF92A1AE]
Трек  3  точность не определена (достоверность 1)  [62E69642], AccurateRip вернул [5C3353D0]
Трек  4  точность не определена (достоверность 1)  [82B6684F], AccurateRip вернул [B69BEDE5]
Трек  5  точность не определена (достоверность 1)  [2DE11F3F], AccurateRip вернул [EDE7CB11]
Трек  6  точность не определена (достоверность 1)  [FF09266F], AccurateRip вернул [B031C9CF]
Трек  7  точность не определена (достоверность 1)  [8D81C9DC], AccurateRip вернул [FEBD0686]
Трек  8  точность не определена (достоверность 1)  [6ABEADA5], AccurateRip вернул [08E11503]
Трек  9  точность не определена (достоверность 1)  [ED21A6DA], AccurateRip вернул [80A83714]
Трек 10  точность не определена (достоверность 1)  [1A52471F], AccurateRip вернул [7433F6DF]
Трек 11  точность не определена (достоверность 1)  [8A8B0BB1], AccurateRip вернул [AAFB0521]
Трек 12  точность не определена (достоверность 1)  [1798C11E], AccurateRip вернул [BA8566C0]
Трек 13  точность не определена (достоверность 1)  [45D155CA], AccurateRip вернул [A1FDEB5C]
Ни один трек не прошёл проверки на точность
В вашей базе может быть иной вариант штамповки диска
Конец отчёта
 
Код:
 Started at: суббота, 10. 10. 2009. - 16:35.42
1 file found
1 -===- D:\Documents and Settings\Rodexx\Рабочий стол\P24 - Stimmen Bleiben Stumm\P24 - CD Stimmen Bleiben Stumm.ape
  Extracted successfully
  Conclusion: this track is CDDA with probability 100%
  Tempfile successfully deleted.
Finished at: суббота, 10. 10. 2009. - 16:43.36 (operation time: 0:07.54)
Label:Phobotaxis Media
Catalog#:pm08005
Format:CD, Album
Country:Germany
Released:29 Aug 2008
Genre:Electronic, Pop
Style:EBM, Electro, Synth-pop
Правила, инструкции, FAQ!!!
Торрент  Добавлен [26 июн 2020, 17:19] Скачать торрент Магнет ссылка
Скачать торрент
[ Размер 19.03 КБ / Просмотров 10 ]

Статус
Проверен 
 
Размер  468.13 МБ
Приватный: Нет (DHT включён)
.torrent скачан  0
 


     Отправить личное сообщение
   
Страница 1 из 1
Показать сообщения за:  Поле сортировки  
Начать новую тему Ответить на тему


Сейчас этот форум просматривают: нет зарегистрированных пользователей и гости: 0


Вы не можете начинать темы
Вы не можете отвечать на сообщения
Вы не можете редактировать свои сообщения
Вы не можете удалять свои сообщения
Вы не можете добавлять вложения

Перейти:  
cron