Начать новую тему Ответить на тему
Статистика раздачи
Размер: 387.58 МБ | Добавлен: 26 июн 2020, 17:19 | Скачали: 0
Сидеров: 0  [0 байт/сек]    Личеров: 0  [0 байт/сек]
Пред. тема | След. тема 

Автор
Сообщение

СообщениеДобавлено: 26 июн 2020, 17:19 

Ответить с цитатой 

P24 - Gedanklicher Freiraum
Жанр: EBM, Electro, Synth-pop
Год выпуска диска: 2006
Производитель диска: Germany
Аудио кодек: APE
Тип рипа: image+.cue
Битрейт аудио: lossless
Трэклист:
01.Ohne Gnade 3:19
02.Persönlicher Fluch 3:38
03.Viel Zu Viel 3:50
04.Geist 5:24
05.Nach Anderen Gedanken 5:03
06.Deine Entscheidung 4:15
07.Wesen Des Gewissens 4:40
08.Wie Noch Nie 5:01
09.Scheinwelt 4:25
10.3002 5:15
11.Wir Sind 5:05
12.Endzeit 4:16
Код:
Exact Audio Copy V0.99 prebeta 5 from 4. May 2009
Отчёт EAC об извлечении, выполненном 10. октября 2009, 17:42
P24 / Gedanklicher Freiraum
Дисковод: Optiarc DVD RW AD-7201S   Adapter: 1  ID: 1
Режим чтения                 : Достоверность
Использование точного потока : Да
Отключение кэша аудио        : Да
Использование указателей C2  : Нет
Коррекция смещения при чтении                     : 48
Способность читать области Lead-in и Lead-out     : Нет
Заполнение пропущенных сэмплов тишиной            : Да
Удаление блоков с тишиной в начале и конце        : Нет
При вычислениях CRC использовались нулевые сэмплы : Да
Интерфейс                                         : Встроенный
Win32-интерфейс для Win NT/2000
Выходной формат : Внутренние WAV-операции
Формат сэмплов  : 44.100 Гц; 16 бит; стерео
TOC извлечённого CD
     Трек |   Старт  | Длительность | Начальный сектор | Конечный сектор
    ---------------------------------------------------------------------
       1  |  0:00.00 |    3:20.58   |           0      |      15057
       2  |  3:20.58 |    3:39.11   |       15058      |      31493
       3  |  6:59.69 |    3:51.12   |       31494      |      48830
       4  | 10:51.06 |    5:25.57   |       48831      |      73262
       5  | 16:16.63 |    5:04.18   |       73263      |      96080
       6  | 21:21.06 |    4:15.15   |       96081      |     115220
       7  | 25:36.21 |    4:40.57   |      115221      |     136277
       8  | 30:17.03 |    5:02.23   |      136278      |     158950
       9  | 35:19.26 |    4:25.47   |      158951      |     178872
      10  | 39:44.73 |    5:14.65   |      178873      |     202487
      11  | 44:59.63 |    5:05.56   |      202488      |     225418
      12  | 50:05.44 |    4:15.65   |      225419      |     244608
Характеристики диапазона извлечения и сообщения об ошибках
Выбранный диапазон
     Имя файла D:\Documents and Settings\Rodexx\Рабочий стол\P24 -
Gedanklicher Freiraum\P24 - Gedanklicher Freiraum.wav
     Пиковый уровень 97.7 %
     Качество диапазона 100.0 %
     CRC теста 12E4C42C
     CRC копии 12E4C42C
     Копирование... OK
Ошибок не произошло
AccurateRip: сводка
Трек  1  нет в базе данных
Трек  2  нет в базе данных
Трек  3  нет в базе данных
Трек  4  нет в базе данных
Трек  5  нет в базе данных
Трек  6  нет в базе данных
Трек  7  нет в базе данных
Трек  8  нет в базе данных
Трек  9  нет в базе данных
Трек 10  нет в базе данных
Трек 11  нет в базе данных
Трек 12  нет в базе данных
Ни одного трека нет в базе AccurateRip
Конец отчёта
 
Код:
 Started at: суббота, 10. 10. 2009. - 17:46.06
1 file found
1 -===- D:\Documents and Settings\Rodexx\Рабочий стол\P24 - Gedanklicher Freiraum\P24 - Gedanklicher Freiraum.ape
  Extracted successfully
  Conclusion: this track is CDDA with probability 100%
  Tempfile successfully deleted.
Finished at: суббота, 10. 10. 2009. - 17:52.34 (operation time: 0:06.28)
Label:Calyx Records
Catalog#:CR029
Format:CD
Country:Germany
Released:13 Oct 2006
Genre:Electronic
Style:EBM, Synth-pop
Правила, инструкции, FAQ!!!
Торрент  Добавлен [26 июн 2020, 17:19] Скачать торрент Магнет ссылка
Скачать торрент
[ Размер 15.87 КБ / Просмотров 6 ]

Статус
Проверен 
 
Размер  387.58 МБ
Приватный: Нет (DHT включён)
.torrent скачан  0
 


     Отправить личное сообщение
   
Страница 1 из 1
Показать сообщения за:  Поле сортировки  
Начать новую тему Ответить на тему


Сейчас этот форум просматривают: нет зарегистрированных пользователей и гости: 0


Вы не можете начинать темы
Вы не можете отвечать на сообщения
Вы не можете редактировать свои сообщения
Вы не можете удалять свои сообщения
Вы не можете добавлять вложения

Перейти:  
cron